Queenpins

Queenpins

Mr. MeeseeksMr. Meeseeks   July 09, 2021  
Add to list
Queenpins

Movie info

Title
Confirmed and upcoming movie titles only! Search before adding to avoid dupes.
Queenpins
Year
The year the movie is set to be released.
2021
Director
Aron Gaudet & Gita Pullapilly
Genre
Pick one or multiple movie genres.
Cinema release
First cinema release date in any country.
September 10, 2021
Description
Starring Kristen Bell, Kirby Howell-Baptiste, Paul Walter Hauser, Joel McHale, Bebe Rexha, and Vince Vaughn.
Where you watch

Where you watch Email alert

Yes, it is available and reported below. Use the alert button to get notified when higher quality versions are available.

Download and stream reports

Is there a Queenpins torrent? Yes. Reports are available below.
When will Queenpins be available on digital platforms like iTunes, Amazon or Apple+? As of now, there's no release date announced. This includes iTunes, Amazon, Blu-Ray and DVD.

October 01, 2021
Queenpins.2021.1080p.AMZN.WEBRip.DDP5.1.x264-NOGRP
Video and audio quality: 5/5 | Source: Official web stream

Submitted by: Mr. Meeseeks | Trust Rank level: Supreme Member
Format: Torrent | Site: RARBG
Video ID : 1 Format : AVC Format/Info : Advanced Video Codec Format profile : High@L4 Format settings : CABAC / 4 Ref Frames Format settings, CABAC : Yes Format settings, Reference frames : 4 frames Codec ID : V_MPEG4/ISO/AVC Duration : 1 h 50 min Bit rate mode : Constant Bit rate : 8 701 kb/s Nominal bit rate : 10 000 kb/s Width : 1 920 pixels Height : 872 pixels Display aspect ratio : 2.2:1 Frame rate mode : Constant Frame rate : 24.000 FPS Color space : YUV Chroma subsampling : 4:2:0 Bit depth : 8 bits Scan type : Progressive Bits/(Pixel*Frame) : 0.217 Stream size : 6.71 GiB (93%) Language : English Default : Yes Forced : No Color range : Limited Color primaries : BT.709 Transfer characteristics : BT.709 Matrix coefficients : BT.709 Audio ID : 2 Format : E-AC-3 Format/Info : Enhanced AC-3 Commercial name : Dolby Digital Plus Codec ID : A_EAC3 Duration : 1 h 50 min Bit rate mode : Constant Bit rate : 640 kb/s Channel(s) : 6 channels Channel layout : L R C LFE Ls Rs Sampling rate : 48.0 kHz Frame rate : 31.250 FPS (1536 SPF) Compression mode : Lossy Stream size : 505 MiB (7%) Language : English Service kind : Complete Main Default : Yes Forced : No Text ID : 3 Format : UTF-8 Codec ID : S_TEXT/UTF8 Codec ID/Info : UTF-8 Plain Text Duration : 1 h 43 min Bit rate : 95 b/s Count of elements : 1847 Stream size : 72.3 KiB (0%) Language : English Default : Yes Forced : No

Videos Add media

Queenpins | Official Trailer [HD] | In Theaters September 10 and coming soon to Paramount+
Queenpins | Official Trailer [HD] | In Theaters Se...