Queen & Slim

Queen & Slim

Hot
MavoyMavoy   February 26, 2019  
Add to list
Queen & Slim

Movie info

Title
Confirmed and upcoming movie titles only! Search before adding to avoid dupes.
Queen & Slim
Year
The year the movie is set to be released.
2019
Genre
Pick one or multiple movie genres.
Cinema release
First cinema release date in any country.
November 27, 2019
Digital release
Official digital release date on services such as iTunes, Amazon, Netflix. It's the first known release date, without any country restriction. So if it's out on iTunes Russia first, this would be the digital release date.
February 18, 2020
Description
Queen & Slim is the directorial debut from Melina Matsoukas, best known as director of music videos for Beyonce, Solange, Rihanna and Lady Gaga, as well as episodes of "Insecure" and "Master of None". The screenplay, written by Lena Waithe, depicts the story of black couple whose first date goes wrong when they shoot a cop in self-defense.

Starring Daniel Kaluuya, Jodie Turner-Smith, Chloë Sevigny, Flea, Bokeem Woodbine, Indya Moore, and Sturgill Simpson.
Where you watch

Where you watch Email alert

Yes. The movie is online and reported below, Use the alert button to get notified when higher quality versions are available.

Download and stream reports

Can I download or stream Queen & Slim? Yes. Reports of pirated torrents and streams are available below.
When will Queen & Slim be available on digital platforms like iTunes or Amazon? It's set for a February 18, 2020 release. This likely includes iTunes and Amazon unless it is an exclusive Netflix, or similar, release. Physical versions on Blu-Ray or DVD will likely follow.

February 21, 2020
Queen.and.Slim.2019.1080p.BluRay.x264-YOL0W
Video and audio quality: 5/5 | Source: BluRay

Submitted by: armiestice | Trust Rank level: Senior Member
Format: Torrent | Site: RARBG
Date........: Wed 02/19/2020 . ___ Source......: BluRay . ( ( Runtime.....: 02:12:22.944 )/ Video.......: x264 / Resolution..: 1920x808 2.40:1 // Bitrate.....: 8 809 kb/s / FPS.........: 23.976 // Audio.......: AC3 .. Channels....: 5.1 . . Bitrate.....: 640 kb/s / __ Language....: English __ Subtitles...: None / Size........: 8947 MB
February 17, 2020
Queen.and.Slim.2019.1080p.WEB-DL.DD5.1.H264-FGT
Video and audio quality: 5/5 | Source: Official web stream

Submitted by: Mr. Meeseeks | Trust Rank level: Supreme Member
Format: Torrent | Site: RARBG
Video ID : 1 Format : AVC Format/Info : Advanced Video Codec Format profile : High@L4 Format settings : CABAC / 5 Ref Frames Format settings, CABAC : Yes Format settings, Reference frames : 5 frames Codec ID : V_MPEG4/ISO/AVC Duration : 2 h 12 min Bit rate : 4 462 kb/s Width : 1 920 pixels Height : 802 pixels Display aspect ratio : 2.40:1 Frame rate mode : Constant Frame rate : 23.976 (24000/1001) FPS Color space : YUV Chroma subsampling : 4:2:0 Bit depth : 8 bits Scan type : Progressive Bits/(Pixel*Frame) : 0.121 Stream size : 4.13 GiB (92%) Title : Queen.and.Slim.2019.1080p.WEB-DL.DD5.1.H264-FGT Language : English Default : Yes Forced : No Color range : Limited Color primaries : BT.709 Transfer characteristics : BT.709 Matrix coefficients : BT.709 Audio ID : 2 Format : AC-3 Format/Info : Audio Coding 3 Commercial name : Dolby Digital Codec ID : A_AC3 Duration : 2 h 12 min Bit rate mode : Constant Bit rate : 384 kb/s Channel(s) : 6 channels Channel layout : L R C LFE Ls Rs Sampling rate : 48.0 kHz Frame rate : 31.250 FPS (1536 SPF) Bit depth : 16 bits Compression mode : Lossy Stream size : 364 MiB (8%) Title : Queen.and.Slim.2019.1080p.WEB-DL.DD5.1.H264-FGT Language : English Service kind : Complete Main Default : Yes Forced : No Text ID : 3 Format : UTF-8 Codec ID : S_TEXT/UTF8 Codec ID/Info : UTF-8 Plain Text Duration : 2 h 7 min Bit rate : 46 b/s Count of elements : 1533 Stream size : 43.6 KiB (0%) Language : English Default : Yes Forced : No
January 17, 2020
Queen.And.Slim.2019.QuerySCR x264-TOPKEK
Video and audio quality: 4/5 | Source: Screener

Submitted by: Mavoy | Trust Rank level: Hero member
Format: Torrent | Site: 1337x
Container = MPEG-4 (mp4) Duration = 02:12:23.310 Filesize = 689 MiB Overall bitrate = 727 kb/s ViDEO Codec info = AVC High@L3 | avc1 Resolution = 720x352 Display AR = 2.397 | 2.40:1 Bitrate = 558 kb/s Framerate = VFR 23.976 Color space = YUV Chroma subsampling = 4:2:0 Encoder = x264 - core 142 r2431 ac76440 AUDiO Codec info = AAC | mp4a-40-2 Channels = 2 Bitrate = VBR 162 kb/s Samplerate = 48.0 kHz Language = English
December 26, 2019
Queen and Slim.2019.HDCAM.XViD.AC3-ETRG
Video and audio quality: 1/5 | Source: Camera

Submitted by: Mr. Meeseeks | Trust Rank level: Supreme Member
Format: Torrent | Site: 1337x
Bitrate 1393kbps Resolution : 720 X 296 Frame Rate : 29 fps Aspect Ratio :2.40:1 Audio :- Codec ID : AC3 Sample Rate : 48.0 KHZ Bitrate : 128ps Channel(s) : 2 Duration : 02h05m File Size : 1.34GiB Sample : Ye Release Date : 18-12-2019 Language : English

Videos Add media

QUEEN & SLIM Official Trailer (2019) Daniel Kaluuya, Drama Movie HD
QUEEN & SLIM Official Trailer (2019) Daniel Kaluuy...