Princess of the Row

Princess of the Row

Mr. MeeseeksMr. Meeseeks   October 02, 2020  
Add to list
Princess of the Row

Movie info

Title
Confirmed and upcoming movie titles only! Search before adding to avoid dupes.
Princess of the Row
Year
The year the movie is set to be released.
2020
Director
Van Maximilian Carlson
Genre
Pick one or multiple movie genres.
Digital release
Official digital release date on services such as iTunes, Amazon, Netflix. It's the first known release date, without any country restriction. So if it's out on iTunes Russia first, this would be the digital release date.
November 27, 2020
Description
Starring Tayler Buck, Edi Gathegi, Ana Ortiz, Jacob Vargas, and Martin Sheen.
Where you watch

Where you watch Email alert

Yes, it is available and reported below. Use the alert button to get notified when higher quality versions are available.

Download and stream reports

Is there a Princess of the Row torrent? Yes. Reports are available below.
When will Princess of the Row be available on VOD? It's set for a November 27, 2020 release.

November 27, 2020
Princess.of.the.Row.2019.1080p.WEB-DL.DD5.1.H264-FGT
Video and audio quality: 5/5 | Source: Official web stream

Submitted by: Slen | Trust Rank level: Professional
Format: Official stream | Site: RARBG
ideo ID : 1 Format : AVC Format/Info : Advanced Video Codec Format profile : High@L4 Format settings : CABAC / 5 Ref Frames Format settings, CABAC : Yes Format settings, Reference frames : 5 frames Codec ID : V_MPEG4/ISO/AVC Duration : 1 h 24 min Bit rate : 4 573 kb/s Width : 1 920 pixels Height : 718 pixels Display aspect ratio : 2.674 Frame rate mode : Constant Frame rate : 23.976 (24000/1001) FPS Color space : YUV Chroma subsampling : 4:2:0 Bit depth : 8 bits Scan type : Progressive Bits/(Pixel*Frame) : 0.138 Stream size : 2.71 GiB (92%) Title : Princess.of.the.Row.2019.1080p.WEB-DL.DD5.1.H.264-FGT Language : English Default : Yes Forced : No Color range : Limited Color primaries : BT.709 Transfer characteristics : BT.709 Matrix coefficients : BT.709 Audio ID : 2 Format : AC-3 Format/Info : Audio Coding 3 Commercial name : Dolby Digital Codec ID : A_AC3 Duration : 1 h 24 min Bit rate mode : Constant Bit rate : 384 kb/s Channel(s) : 6 channels Channel layout : L R C LFE Ls Rs Sampling rate : 48.0 kHz Frame rate : 31.250 FPS (1536 SPF) Compression mode : Lossy Stream size : 233 MiB (8%) Title : Princess.of.the.Row.2019.1080p.WEB-DL.DD5.1.H.264-FGT Language : English Service kind : Complete Main Default : Yes Forced : No Text ID : 3 Format : UTF-8 Codec ID : S_TEXT/UTF8 Codec ID/Info : UTF-8 Plain Text Duration : 1 h 24 min Bit rate : 43 b/s Count of elements : 741 Stream size : 26.9 KiB (0%) Language : English Default : Yes Forced : No

Videos Add media

Princess of The Row (2019) Official Trailer
Princess of The Row (2019) Official Trailer