Prey

Hot
Mr. MeeseeksMr. Meeseeks   June 05, 2022  
Add to list
Prey

Movie info

Title
Confirmed and upcoming movie titles only! Search before adding to avoid dupes.
Prey
Year
The year the movie is set to be released.
2022
Director
Dan Trachtenberg
Genre
Pick one or multiple movie genres.
Digital release
Official digital release date on services such as iTunes, Amazon, Netflix. It's the first known release date, without any country restriction. So if it's out on iTunes Russia first, this would be the digital release date.
August 05, 2022
Description
The fifth installment of the 'Predator' franchise, serving as a prequel to all four previous films.

Starring Amber Midthunder, Dakota Beavers, Stormee Kipp, Michelle Thrush, and Julian Black Antelope.
Where you watch

Where you watch Email alert

Yes, it is available and reported below. Use the alert button to get notified when higher quality versions are available.

Download and stream reports

Is there a Prey torrent? Yes. Reports are available below.
When will Prey be available on VOD? It's set for a August 05, 2022 release.

August 05, 2022
Prey.2022.2160p.DSNP.WEB-DL.DDP5.1.Atmos.HDR&DV.HEVC-CMRG [12 GB]
Video and audio quality: 5/5 | Source: Official web stream

Submitted by: BlueSkull | Trust Rank level: Hero member
Format: Torrent | Site: torrent
August 05, 2022
Prey.2022.1080p.HULU.WEBRip.DDP5.1.x264-CM
Video and audio quality: 5/5 | Source: Official web stream

Submitted by: Mr. Meeseeks | Trust Rank level: Supreme Member
Format: Torrent | Site: RARBG
Video ID : 1 Format : AVC Format/Info : Advanced Video Codec Format profile : High@L4 Format settings : CABAC / 4 Ref Frames Format settings, CABAC : Yes Format settings, Reference frames : 4 frames Codec ID : V_MPEG4/ISO/AVC Duration : 1 h 39 min Bit rate : 3 571 kb/s Width : 1 920 pixels Height : 1 080 pixels Display aspect ratio : 16:9 Frame rate mode : Constant Frame rate : 24.000 FPS Color space : YUV Chroma subsampling : 4:2:0 Bit depth : 8 bits Scan type : Progressive Bits/(Pixel*Frame) : 0.072 Stream size : 2.48 GiB (93%) Language : English Default : Yes Forced : No Audio ID : 2 Format : E-AC-3 Format/Info : Enhanced AC-3 Commercial name : Dolby Digital Plus Codec ID : A_EAC3 Duration : 1 h 39 min Bit rate mode : Constant Bit rate : 256 kb/s Channel(s) : 6 channels Channel layout : L R C LFE Ls Rs Sampling rate : 48.0 kHz Frame rate : 31.250 FPS (1536 SPF) Compression mode : Lossy Stream size : 182 MiB (7%) Language : English Service kind : Complete Main Default : Yes Forced : No

Videos Add media

Prey | 20th Century Studios | Hulu
Prey | 20th Century Studios | Hulu