Pretending I'm A Superman: The Tony Hawk Video Game Story

Pretending I'm A Superman: The Tony Hawk Video Game Story

Hot
Mr. MeeseeksMr. Meeseeks   July 31, 2020  
Add to list
Pretending I'm A Superman: The Tony Hawk Video Game Story
Pretending I'm A Superman: The Tony Hawk Video Game Story

Movie info

Title
Confirmed and upcoming movie titles only! Search before adding to avoid dupes.
Pretending I'm A Superman: The Tony Hawk Video Game Story
Year
The year the movie is set to be released.
2020
Director
Genre
Pick one or multiple movie genres.
Digital release
Official digital release date on services such as iTunes, Amazon, Netflix. It's the first known release date, without any country restriction. So if it's out on iTunes Russia first, this would be the digital release date.
August 18, 2020
Description
As competitive skateboarding began to grow in America, the release of the "Tony Hawk's Pro Skater" video game pushed the fringe underground community of skating straight into the mainstream. The first Pro Skater would sell 9 million copies, and the franchise would go on to sell over 30 million, making Tony Hawk the most iconic figure in the history of skateboarding. THPS is currently on the Top-100 list of best-selling video game franchises.
Where you watch

Where you watch Email alert

Yes, it is available and reported below. Use the alert button to get notified when higher quality versions are available.

Download and stream reports

Can I download or stream Pretending I'm A Superman: The Tony Hawk Video Game Story? Yes. Reports of pirated torrents and streams are available below.
When will Pretending I'm A Superman: The Tony Hawk Video Game Story be available on digital platforms like iTunes or Amazon? It's set for a August 18, 2020 release. This likely includes iTunes and Amazon unless it is an exclusive Netflix, or similar, release. Physical versions on Blu-Ray or DVD will likely follow.

August 19, 2020
Pretending.Im.A.Superman.The.Tony.Hawk.Video.Game.Story.2020.1080p.AMZN.WEBRip.DDP5.1.x264-QOQ
Video and audio quality: 5/5 | Source: Official web stream

Submitted by: Mr. Meeseeks | Trust Rank level: Supreme Member
Format: Torrent | Site: RARBG
Video ID : 1 Format : AVC Format/Info : Advanced Video Codec Format profile : High@L4 Format settings : CABAC / 4 Ref Frames Format settings, CABAC : Yes Format settings, Reference frames : 4 frames Codec ID : V_MPEG4/ISO/AVC Duration : 1 h 11 min Bit rate mode : Constant Bit rate : 8 575 kb/s Nominal bit rate : 10 000 kb/s Width : 1 920 pixels Height : 1 080 pixels Display aspect ratio : 16:9 Frame rate mode : Constant Frame rate : 23.976 (24000/1001) FPS Color space : YUV Chroma subsampling : 4:2:0 Bit depth : 8 bits Scan type : Progressive Bits/(Pixel*Frame) : 0.172 Stream size : 4.28 GiB (93%) Default : Yes Forced : No Color range : Limited Color primaries : BT.709 Transfer characteristics : BT.709 Matrix coefficients : BT.709 Audio ID : 2 Format : E-AC-3 Format/Info : Enhanced AC-3 Commercial name : Dolby Digital Plus Codec ID : A_EAC3 Duration : 1 h 11 min Bit rate mode : Constant Bit rate : 640 kb/s Channel(s) : 6 channels Channel layout : L R C LFE Ls Rs Sampling rate : 48.0 kHz Frame rate : 31.250 FPS (1536 SPF) Compression mode : Lossy Stream size : 327 MiB (7%) Language : English Service kind : Complete Main Default : Yes Forced : No Text #1 ID : 3 Format : UTF-8 Codec ID : S_TEXT/UTF8 Codec ID/Info : UTF-8 Plain Text Duration : 1 h 11 min Bit rate : 112 b/s Count of elements : 1540 Stream size : 58.4 KiB (0%) Language : English Default : No Forced : No Text #2 ID : 4 Format : UTF-8 Codec ID : S_TEXT/UTF8 Codec ID/Info : UTF-8 Plain Text Duration : 1 h 11 min Bit rate : 112 b/s Count of elements : 1540 Stream size : 58.6 KiB (0%) Title : SDH Language : English Default : No Forced : No

Videos Add media

Pretending I'm a Superman - Official Trailer
Pretending I'm a Superman - Official Trailer