Prayers for the Stolen

Prayers for the Stolen

Mr. MeeseeksMr. Meeseeks   October 23, 2021  
Add to list
Prayers for the Stolen

Movie info

Title
Confirmed and upcoming movie titles only! Search before adding to avoid dupes.
Prayers for the Stolen
Year
The year the movie is set to be released.
2021
Director
Tatiana Huezo
Genre
Pick one or multiple movie genres.
Cinema release
First cinema release date in any country.
September 16, 2021
Digital release
Official digital release date on services such as iTunes, Amazon, Netflix. It's the first known release date, without any country restriction. So if it's out on iTunes Russia first, this would be the digital release date.
November 17, 2021
Description
Starring Mayra Batalla, Ana Cristina Ordóñez González, Marya Membreño, Norma Pablo, Eileen Yáñez, and Memo Villegas.
Where you watch

Where you watch Email alert

Yes, it is available and reported below. Use the alert button to get notified when higher quality versions are available.

Download and stream reports

Is there a Prayers for the Stolen torrent? Yes. Reports are available below.
When will Prayers for the Stolen be available on VOD? It's set for a November 17, 2021 release.

November 23, 2021
Prayers.for.the.Stolen.[Noche.de.Fuego].2021.SUBBED.1080p.WEBRip.x264.AAC.HORiZON-ArtSubs
Video and audio quality: 5/5 | Source: Official web stream

Submitted by: Mr. Meeseeks | Trust Rank level: Supreme Member
Format: Torrent | Site: 1337x
Video ID : 1 Format : AVC Format/Info : Advanced Video Codec Format profile : High@L4.1 Format settings : CABAC / 4 Ref Frames Format settings, CABAC : Yes Format settings, Reference : 4 frames Codec ID : V_MPEG4/ISO/AVC Duration : 1 h 50 min Bit rate : 3 400 kb/s Width : 1 920 pixels Height : 1 080 pixels Display aspect ratio : 16:9 Frame rate mode : Constant Frame rate : 24.000 FPS Color space : YUV Chroma subsampling : 4:2:0 Bit depth : 8 bits Scan type : Progressive Bits/(Pixel*Frame) : 0.068 Stream size : 2.63 GiB (96%) Writing library : x264 core 163 r3059 b684ebe0 Encoding settings : cabac=1 / ref=4 / deblock=1:-2:-2 / analyse=0x3:0x113 / me=hex / subme=8 / psy=1 / psy_rd=1.00:0.25 / mixed_ref=1 / me_range=16 / chroma_me=1 / trellis=2 / 8x8dct=1 / cqm=0 / deadzone=6,6 / fast_pskip=1 / chroma_qp_offset=-4 / threads=6 / lookahead_threads=1 / sliced_threads=0 / nr=0 / decimate=0 / interlaced=0 / bluray_compat=0 / constrained_intra=0 / bframes=3 / b_pyramid=2 / b_adapt=1 / b_bias=0 / direct=3 / weightb=1 / open_gop=0 / weightp=2 / keyint=240 / keyint_min=24 / scenecut=40 / intra_refresh=0 / rc_lookahead=50 / rc=2pass / mbtree=1 / bitrate=3400 / ratetol=1.0 / qcomp=0.70 / qpmin=0 / qpmax=69 / qpstep=4 / cplxblur=20.0 / qblur=0.5 / vbv_maxrate=25000 / vbv_bufsize=78125 / nal_hrd=none / filler=0 / ip_ratio=1.10 / aq=3:1.20 Default : Yes Forced : No Color range : Limited Color primaries : BT.709 Transfer characteristics : BT.709 Matrix coefficients : BT.709 Audio ID : 2 Format : AAC LC Format/Info : Advanced Audio Codec Low Complexity Codec ID : A_AAC-2 Duration : 1 h 50 min Bit rate : 128 kb/s Channel(s) : 2 channels Channel layout : L R Sampling rate : 48.0 kHz Frame rate : 46.875 FPS (1024 SPF) Compression mode : Lossy Stream size : 101 MiB (4%) Language : Spanish Default : Yes Forced : No

Videos Add media

Prayers for the Stolen (Noche De Fuego) | Official Trailer | Netflix
Prayers for the Stolen (Noche De Fuego) | Official...