Possessor

Possessor

Hot
j3000j3000   April 19, 2020  
Add to list
Possessor Movie
brain-implant technology to inhabit other people's bodies

Movie info

Title
Confirmed and upcoming movie titles only! Search before adding to avoid dupes.
Possessor
Year
The year the movie is set to be released.
2020
Director
Brandon Cronenberg
Genre
Pick one or multiple movie genres.
Cinema release
First cinema release date in any country.
October 09, 2020
Description
A crazy story about brain implants. A movie which as presented at this year's Sundance Film Festival.
The reviews claim it looks amazing, but that it lacks substance. Which I'm fine with, because it looks too good not to skip.
With the current situation, I wouldn't be surprised if it lands a VOD release soon.
Where you watch

Where you watch Email alert

Yes, it is available and reported below. Use the alert button to get notified when higher quality versions are available.

Download and stream reports

Is there a Possessor torrent? Yes. Reports are available below.
When will Possessor be available on digital platforms like iTunes, Amazon or Apple+? As of now, there's no release date announced. This includes iTunes, Amazon, Blu-Ray and DVD.

November 03, 2020
Possessor.UNCUT.2020.1080p.WEB-DL.DD5.1.H.264-EVO
Video and audio quality: 4/5 | Source: Official web stream

Submitted by: Cupio Dissolvi | Trust Rank level: Standard member
Format: Official stream | Site: rlsbb
UNCUT VERSION Release Name: Possessor.Uncut.2020.1080p.WEB-DL.DD5.1.H.264-EVO Size: 3.97GB Video: MKV | 1920×1080 | 5 061 kb/s Audio: English | AC3 | 384 kb/s Runtime: 1 h 44 min Subtitles: N/A
November 03, 2020
Possessor.2020.1080p.AMZN.WEBRip.DDP5.1.x264-NTG
Video and audio quality: 5/5 | Source: Official web stream

Submitted by: Slen | Trust Rank level: Professional
Format: Official stream | Site: RARBG
Video ID : 1 Format : AVC Format/Info : Advanced Video Codec Format profile : High@L4 Format settings : CABAC / 4 Ref Frames Format settings, CABAC : Yes Format settings, Reference frames : 4 frames Codec ID : V_MPEG4/ISO/AVC Duration : 1 h 43 min Bit rate mode : Constant Bit rate : 7 972 kb/s Nominal bit rate : 10 000 kb/s Width : 1 920 pixels Height : 1 080 pixels Display aspect ratio : 16:9 Frame rate mode : Constant Frame rate : 23.976 (24000/1001) FPS Color space : YUV Chroma subsampling : 4:2:0 Bit depth : 8 bits Scan type : Progressive Bits/(Pixel*Frame) : 0.160 Stream size : 5.76 GiB (93%) Default : Yes Forced : No Color range : Limited Color primaries : BT.709 Transfer characteristics : BT.709 Matrix coefficients : BT.709 Audio ID : 2 Format : E-AC-3 Format/Info : Enhanced AC-3 Commercial name : Dolby Digital Plus Codec ID : A_EAC3 Duration : 1 h 43 min Bit rate mode : Constant Bit rate : 640 kb/s Channel(s) : 6 channels Channel layout : L R C LFE Ls Rs Sampling rate : 48.0 kHz Frame rate : 31.250 FPS (1536 SPF) Compression mode : Lossy Stream size : 474 MiB (7%) Language : English Service kind : Complete Main Default : Yes Forced : No
April 24, 2020
Possessor.2020.1080p.SCR.WEBRip.X264-EVO
Video and audio quality: 5/5 | Source: Official web stream

Submitted by: Denzel | Trust Rank level: Standard member
Format: Torrent | Site: torrentgalaxy
MEDIAINFO Container = Matroska (mkv) Duration = 01:43:31.672 Filesize = 3 GiB Overall bitrate = 4 299 kb/s Video Codec info = AVC High@L4.1 | V_MPEG4/ISO/AVC Resolution = 1920x1080 Display AR = 1.778 | 16:9 Bitrate = 3 915 kb/s Framerate = CFR 24.000 Color space = YUV Chroma subsampling = 4:2:0 Encoder = x264 - core 142 r2479 dd79a61 Audio Codec info = AC-3 | A_AC3 Channels = 2 Bitrate = CBR 384 kb/s Samplerate = 48.0 kHz Language = English

Videos Add media

POSSESSOR UNCUT Official Trailer
POSSESSOR UNCUT Official Trailer