P!nk: All I Know So Far

P!nk: All I Know So Far

Mr. MeeseeksMr. Meeseeks   May 24, 2021  
Add to list
P!nk: All I Know So Far

Movie info

Title
Confirmed and upcoming movie titles only! Search before adding to avoid dupes.
P!nk: All I Know So Far
Year
The year the movie is set to be released.
2021
Director
Michael Gracey
Genre
Pick one or multiple movie genres.
Digital release
Official digital release date on services such as iTunes, Amazon, Netflix. It's the first known release date, without any country restriction. So if it's out on iTunes Russia first, this would be the digital release date.
May 21, 2021
Description
Courtesy of Amazon, a documentary film from director Michael Gracey about multi-platinum Grammy award-winning pop musician Pink.
Where you watch

Where you watch Email alert

Yes, it is available and reported below. Use the alert button to get notified when higher quality versions are available.

Download and stream reports

Is there a P!nk: All I Know So Far torrent? Yes. Reports are available below.
When will P!nk: All I Know So Far be available on VOD? It's set for a May 21, 2021 release.

May 24, 2021
Pink.All.I.Know.So.Far.2021.WEBRip.x264-ION10
Video and audio quality: 5/5 | Source: Official web stream

Submitted by: Mr. Meeseeks | Trust Rank level: Supreme Member
Format: Torrent | Site: RARBG
Video ID : 1 Format : AVC Format/Info : Advanced Video Codec Format profile : High@L3.1 Format settings : CABAC / 5 Ref Frames Format settings, CABAC : Yes Format settings, Reference frames : 5 frames Codec ID : avc1 Codec ID/Info : Advanced Video Coding Duration : 1 h 39 min Bit rate : 1 100 kb/s Width : 720 pixels Height : 300 pixels Display aspect ratio : 2.40:1 Frame rate mode : Constant Frame rate : 23.976 (24000/1001) FPS Color space : YUV Chroma subsampling : 4:2:0 Bit depth : 8 bits Scan type : Progressive Bits/(Pixel*Frame) : 0.212 Stream size : 782 MiB (81%) Title : RARBG - Pink.All.I.Know.So.Far.2021.WEBRip.x264-ION10 Writing library : x264 core 152 r2851M ba24899 Encoding settings : cabac=1 / ref=5 / deblock=1:-1:-1 / analyse=0x3:0x113 / me=umh / subme=9 / psy=1 / psy_rd=1.00:0.15 / mixed_ref=1 / me_range=16 / chroma_me=1 / trellis=2 / 8x8dct=1 / cqm=0 / deadzone=21,11 / fast_pskip=1 / chroma_qp_offset=-3 / threads=16 / lookahead_threads=1 / sliced_threads=0 / nr=0 / decimate=1 / interlaced=0 / bluray_compat=0 / constrained_intra=0 / bframes=3 / b_pyramid=2 / b_adapt=2 / b_bias=0 / direct=3 / weightb=1 / open_gop=0 / weightp=2 / keyint=250 / keyint_min=23 / scenecut=40 / intra_refresh=0 / rc_lookahead=50 / rc=2pass / mbtree=1 / bitrate=1100 / ratetol=1.0 / qcomp=0.60 / qpmin=0 / qpmax=69 / qpstep=4 / cplxblur=20.0 / qblur=0.5 / ip_ratio=1.40 / aq=1:1.00 Encoded date : UTC 2021-05-21 02:39:42 Tagged date : UTC 2021-05-21 02:39:42 Codec configuration box : avcC Audio ID : 2 Format : AAC LC Format/Info : Advanced Audio Codec Low Complexity Codec ID : mp4a-40-2 Duration : 1 h 39 min Duration_LastFrame : -11 ms Bit rate mode : Constant Bit rate : 256 kb/s Channel(s) : 2 channels Channel layout : L R Sampling rate : 48.0 kHz Frame rate : 46.875 FPS (1024 SPF) Compression mode : Lossy Stream size : 182 MiB (19%) Title : RARBG - Pink.All.I.Know.So.Far.2021.WEBRip.x264-ION10 Language : English Default : Yes Alternate group : 1 Encoded date : UTC 2021-05-21 02:39:42 Tagged date : UTC 2021-05-21 02:39:42

Videos Add media

PINK All I Know So Far - Official Trailer | Prime Video
PINK All I Know So Far - Official Trailer | Prime ...