Please Stand By

Please Stand By

Mr. MeeseeksMr. Meeseeks   December 11, 2017  
News (0)
Add to list
Please Stand By

Movie info

TITLE
Confirmed and upcoming movie titles only! Search before adding to avoid dupes.
YEAR
The year the movie is set to be released.
2018
DIRECTOR
GENRE
Pick one or multiple movie genres.
CINEMA
First cinema release date in any country.
January 26, 2018
DESCRIPTION
Dakota Fanning stars as Wendy, a young autistic woman with big dreams of turning her Star Trek script into the next blockbuster. Her ambition drives her to runaway from her caretaker to Hollywood, where she enters her masterpiece into a writing competition. The supporting cast includes Toni Collette, Alice Eve, River Alexander, and Patton Oswalt. The film is directed by Ben Lewin, (The Sessions) and is based on a screenplay from Michael Golamco.
WHERE YOU WATCH

Where you watch Email alert

The movie is online and reported below, Use the alert button to get notified when higher quality versions are available.

Reports

April 24, 2018
Please.Stand.By.2017.720p.BluRay.x264.DTS-MT
Video and audio quality: 5/5 | Source: BluRay

Submitted by: Mr. Meeseeks | Trust Rank level: Legend Member
Format: Torrent | Site: RARBG
Video ID : 1 Format : AVC Format/Info : Advanced Video Codec Format profile : [email protected] Format settings : CABAC / 12 Ref Frames Format settings, CABAC : Yes Format settings, ReFrames : 12 frames Codec ID : V_MPEG4/ISO/AVC Duration : 1 h 32 min Bit rate : 6 000 kb/s Width : 1 280 pixels Height : 534 pixels Display aspect ratio : 2.40:1 Frame rate mode : Constant Frame rate : 23.976 (24000/1001) FPS Color space : YUV Chroma subsampling : 4:2:0 Bit depth : 8 bits Scan type : Progressive Bits/(Pixel*Frame) : 0.366 Stream size : 3.89 GiB (80%) Writing library : x264 core 152 r2851 ba24899 Audio ID : 2 Format : DTS Format/Info : Digital Theater Systems Codec ID : A_DTS Duration : 1 h 32 min Bit rate mode : Constant Bit rate : 1 509 kb/s Channel(s) : 6 channels Channel positions : Front: L C R, Side: L R, LFE Sampling rate : 48.0 kHz Frame rate : 93.750 FPS (512 SPF) Bit depth : 24 bits Compression mode : Lossy Stream size : 1 001 MiB (20%) Title : 英语 Language : English Default : Yes Forced : No
January 27, 2018
Please Stand By 2017 HDRip XviD AC3-EVO
Video and audio quality: 4/5 | Source: Foreign web stream

Submitted by: Mojib | Trust Rank level: Hero member
Format: Torrent | Site: Scene
SOURCE: CMRG

Videos Add media

Please Stand By Trailer #1 (2018) | Movieclips Trailers
Please Stand By Trailer #1 (2018) | Movieclips Tra...

Movie News

There are no member news items for this movie.
To write a comment please register or