Pink Skies Ahead

Pink Skies Ahead

rian johnsonrian johnson   June 05, 2021  
Add to list
Pink Skies Ahead

Movie info

Title
Confirmed and upcoming movie titles only! Search before adding to avoid dupes.
Pink Skies Ahead
Year
The year the movie is set to be released.
2021
Director
Kelly Oxford
Genre
Pick one or multiple movie genres.
Cinema release
First cinema release date in any country.
May 21, 2021
Description
After dropping out of school, a young woman develops an anxiety disorder.
Where you watch

Where you watch Email alert

Yes, it is available and reported below. Use the alert button to get notified when higher quality versions are available.

Download and stream reports

Is there a Pink Skies Ahead torrent? Yes. Reports are available below.
When will Pink Skies Ahead be available on digital platforms like iTunes, Amazon or Apple+? As of now, there's no release date announced. This includes iTunes, Amazon, Blu-Ray and DVD.

November 19, 2021
Pink.Skies.Ahead.2020.1080p.WEBRip.AAC2.0.x264-WELP
Video and audio quality: 5/5 | Source: Official web stream

Submitted by: Mr. Meeseeks | Trust Rank level: Supreme Member
Format: Torrent | Site: RARBG
Video ID : 1 Format : AVC Format/Info : Advanced Video Codec Format profile : High@L4.1 Format settings : CABAC / 4 Ref Frames Format settings, CABAC : Yes Format settings, Reference frames : 4 frames Codec ID : V_MPEG4/ISO/AVC Duration : 1 h 34 min Bit rate mode : Constant Bit rate : 4 079 kb/s Nominal bit rate : 5 653 kb/s Width : 1 920 pixels Height : 1 080 pixels Display aspect ratio : 16:9 Frame rate mode : Constant Frame rate : 29.970 (30000/1001) FPS Color space : YUV Chroma subsampling : 4:2:0 Bit depth : 8 bits Scan type : Progressive Bits/(Pixel*Frame) : 0.066 Stream size : 2.69 GiB (98%) Default : Yes Forced : No Color range : Limited Color primaries : BT.709 Transfer characteristics : BT.709 Matrix coefficients : BT.709 Audio ID : 2 Format : AAC LC Format/Info : Advanced Audio Codec Low Complexity Codec ID : A_AAC-2 Duration : 1 h 34 min Bit rate : 96.0 kb/s Channel(s) : 2 channels Channel layout : L R Sampling rate : 44.1 kHz Frame rate : 43.066 FPS (1024 SPF) Compression mode : Lossy Stream size : 64.8 MiB (2%) Language : English Default : Yes Forced : No Text #1 ID : 3 Format : UTF-8 Codec ID : S_TEXT/UTF8 Codec ID/Info : UTF-8 Plain Text Duration : 1 h 29 min Bit rate : 66 b/s Count of elements : 1682 Stream size : 43.4 KiB (0%) Language : English Default : No Forced : No Text #2 ID : 4 Format : UTF-8 Codec ID : S_TEXT/UTF8 Codec ID/Info : UTF-8 Plain Text Duration : 1 h 29 min Bit rate : 66 b/s Count of elements : 1700 Stream size : 43.7 KiB (0%) Title : SDH Language : English Default : No Forced : No