Phantom Thread

Phantom Thread

Hot
JuancoJuanco   August 30, 2017  
News (0)
Add to list
Phantom Thread
Phantom Thread

Movie info

TITLE
Confirmed and upcoming movie titles only! Search before adding to avoid dupes.
YEAR
The year the movie is set to be released.
2018
GENRE
Pick one or multiple movie genres.
DESCRIPTION
New project by Paul Thomas Anderson, which will reunite with Daniel Day-Lewis after "There Will Be Blood". It will be in the fashion world in New York in the 50's. Despite the fact that the movie is going to be released very soon, little is known about this project. But we're all anticipating a stunning performance from Daniel Day Lewis.
WHERE YOU WATCH

Where you watch Email alert

The movie is online and reported below, Use the alert button to get notified when higher quality versions are available.

Reports

March 29, 2018
Phantom.Thread.2017.BDRip.x264-GECKOS
Quality: 5/5 | Source: Official web stream

Submitted by: armiestice | Trust Rank level: Standard member
Format: Torrent | Site: Torrenting
BluRay Rip. Resolution 720x388
March 27, 2018
Phantom Thread 2018 1080p WEB-DL X264 AC3-EVO
Quality: 5/5 | Source: Official web stream

Submitted by: Mr. Meeseeks | Trust Rank level: Hero member
Format: Torrent | Site: TorrentingMe
ViDEO: 10500 Kbps (L4.1@High) RESOLUTiON: 1920x1040 RUNTiME: 2h 10m 43s SUBTiTLES: No. AUDiO: 384 Kbps AC3 5.1 LANGUAGE: ENGLiSH ENCODER: DdHD
February 07, 2018
Phantom.Thread.2017.DVDSCR.x264.AC3-TiTAN
Quality: 4/5 | Source: DVD

Submitted by: Samuel Calmon | Trust Rank level: Standard member
Format: Torrent | Site: RARBG
Video ID : 1 Format : AVC Format/Info : Advanced Video Codec Format profile : High@L4.1 Format settings : CABAC / 3 Ref Frames Format settings, CABAC : Yes Format settings, ReFrames : 3 frames Codec ID : V_MPEG4/ISO/AVC Duration : 2 h 10 min Bit rate mode : Variable Bit rate : 1 250 kb/s Maximum bit rate : 40.0 Mb/s Width : 720 pixels Height : 384 pixels Display aspect ratio : 1.85:1 Frame rate mode : Constant Frame rate : 23.976 (24000/1001) FPS Color space : YUV Chroma subsampling : 4:2:0 Bit depth : 8 bits Scan type : Progressive Bits/(Pixel*Frame) : 0.189 Stream size : 1.14 GiB (87%) Writing library : x264 core 152 r2851 ba24899 Encoding settings : cabac=1 / ref=4 / deblock=1:-1:-1 / analyse=0x3:0x133 / me=umh / subme=10 / psy=1 / psy_rd=1.00:0.15 / mixed_ref=1 / me_range=24 / chroma_me=1 / trellis=2 / 8x8dct=1 / cqm=0 / deadzone=21,11 / fast_pskip=1 / chroma_qp_offset=-3 / threads=12 / lookahead_threads=1 / sliced_threads=0 / slices=4 / nr=0 / decimate=1 / interlaced=0 / bluray_compat=0 / constrained_intra=0 / bframes=3 / b_pyramid=1 / b_adapt=2 / b_bias=0 / direct=3 / weightb=1 / open_gop=0 / weightp=0 / keyint=23 / keyint_min=1 / scenecut=40 / intra_refresh=0 / rc_lookahead=23 / rc=2pass / mbtree=1 / bitrate=1250 / ratetol=1.0 / qcomp=0.60 / qpmin=10 / qpmax=51 / qpstep=4 / cplxblur=20.0 / qblur=0.5 / vbv_maxrate=40000 / vbv_bufsize=30000 / nal_hrd=vbr / filler=0 / ip_ratio=1.40 / aq=1:1.00 Default : Yes Forced : No Color range : Full Color primaries : BT.709 Transfer characteristics : BT.709 Matrix coefficients : BT.709 Audio ID : 2 Format : AC-3 Format/Info : Audio Coding 3 Codec ID : A_AC3 Duration : 2 h 10 min Bit rate mode : Constant Bit rate : 192 kb/s Channel(s) : 2 channels Channel positions : Front: L R Sampling rate : 48.0 kHz Frame rate : 31.250 FPS (1536 SPF) Bit depth : 16 bits Compression mode : Lossy Stream size : 179 MiB (13%) Service kind : Complete Main Default : Yes Forced : No

Videos Add media

Phantom Thread - Official Trailer 1 (Universal Pictures) HD
Phantom Thread - Official Trailer 1 (Universal Pic...

Movie News

There are no member news items for this movie.
To write a comment please register or