Paul, Apostle of Christ

Paul, Apostle of Christ

Mr. MeeseeksMr. Meeseeks   February 10, 2018  
News (0)
Add to list
Paul, Apostle of Christ

Movie info

TITLE
Confirmed and upcoming movie titles only! Search before adding to avoid dupes.
YEAR
The year the movie is set to be released.
2018
DIRECTOR
GENRE
Pick one or multiple movie genres.
CINEMA
First cinema release date in any country.
March 23, 2018
DESCRIPTION
“Paul, Apostle of Christ” is written and directed by Andrew Hyatt, James Faulkner stars in the titular role on a quest to become the most influential apostle of Jesus Christ.
WHERE YOU WATCH

Where you watch Email alert

The movie is online and reported below, Use the alert button to get notified when higher quality versions are available.

Reports

June 06, 2018
Paul.Apostle.of.Christ.2018.720p.BluRay.x264-DRONES
Video and audio quality: 5/5 | Source: BluRay

Submitted by: Mr. Meeseeks | Trust Rank level: Legend Member
Format: Torrent | Site: RARBG
Video ID : 1 Format : AVC Format/Info : Advanced Video Codec Format profile : [email protected] Format settings : CABAC / 5 Ref Frames Format settings, CABAC : Yes Format settings, RefFrames : 5 frames Codec ID : V_MPEG4/ISO/AVC Duration : 1 h 47 min Bit rate : 5 749 kb/s Width : 1 280 pixels Height : 536 pixels Display aspect ratio : 2.40:1 Frame rate mode : Constant Frame rate : 23.976 FPS Color space : YUV Chroma subsampling : 4:2:0 Bit depth : 8 bits Scan type : Progressive Bits/(Pixel*Frame) : 0.349 Stream size : 4.33 GiB (79%) Writing library : x264 core 155 r2901 7d0ff22 Language : English Default : Yes Forced : No Audio ID : 2 Format : DTS Format/Info : Digital Theater Systems Mode : 16 Format settings, Endianness : Big Codec ID : A_DTS Duration : 1 h 47 min Bit rate mode : Constant Bit rate : 1 509 kb/s Channel(s) : 6 channels Channel positions : Front: L C R, Side: L R, LFE Sampling rate : 48.0 kHz Frame rate : 93.750 FPS (512 SPF) Bit depth : 24 bits Compression mode : Lossy Stream size : 1.14 GiB (21%) Language : English Default : Yes Forced : No Menu 00:00:00.000 : en:00:00:00.000 00:07:58.436 : en:00:07:58.436 00:14:52.100 : en:00:14:52.100 00:22:26.136 : en:00:22:26.136 00:29:26.181 : en:00:29:26.181 00:36:19.302 : en:00:36:19.302 00:40:36.184 : en:00:40:36.184 00:46:59.525 : en:00:46:59.525 00:52:04.455 : en:00:52:04.455 00:55:47.553 : en:00:55:47.553 01:00:38.176 : en:01:00:38.176 01:08:15.591 : en:01:08:15.591 01:19:16.001 : en:01:19:16.001 01:24:19.429 : en:01:24:19.429 01:28:38.605 : en:01:28:38.605 01:34:40.008 : en:01:34:40.008

Movie News

There are no member news items for this movie.
To write a comment please register or