Paris Can Wait

Paris Can Wait

Ramona FlowersRamona Flowers   September 04, 2017  
News (0)
Add to list
Paris Can Wait

Movie info

TITLE
Confirmed and upcoming movie titles only! Search before adding to avoid dupes.
YEAR
The year the movie is set to be released.
2017
GENRE
Pick one or multiple movie genres.
CINEMA
First cinema release date in any country.
May 12, 2017
DESCRIPTION
"Paris Can Wait" is a comedy film written and directed by Eleanor Coppola, which was released in May of 2017. It stars Diane Lane, Alec Baldwin, and Arnaud Viard.
WHERE YOU WATCH

Where you watch Email alert

The movie is online and reported below, Use the alert button to get notified when higher quality versions are available.

Reports

April 07, 2018
Paris.Can.Wait.2016.1080p.BluRay.H264.AAC-RARBG
Quality: 5/5 | Source: BluRay

Submitted by: Mr. Meeseeks | Trust Rank level: Legend Member
Format: Torrent | Site: RARBG
Video ID : 1 Format : AVC Format/Info : Advanced Video Codec Format profile : High@L4.1 Format settings, CABAC : Yes Format settings, ReFrames : 4 frames Codec ID : avc1 Codec ID/Info : Advanced Video Coding Duration : 1h 32mn Bit rate : 2 500 Kbps Width : 1 920 pixels Height : 1 040 pixels Display aspect ratio : 1.85:1 Frame rate mode : Constant Frame rate : 23.976 (23976/1000) fps Color space : YUV Chroma subsampling : 4:2:0 Bit depth : 8 bits Scan type : Progressive Bits/(Pixel*Frame) : 0.052 Stream size : 1.61 GiB (92%) Audio ID : 2 Format : AAC Format/Info : Advanced Audio Codec Format profile : LC Codec ID : 40 Duration : 1h 32mn Bit rate mode : Constant Bit rate : 224 Kbps Channel(s) : 2 channels Channel(s)_Original : 6 channels Channel positions : Front: L C R, Side: L R, LFE Sampling rate : 48.0 KHz Frame rate : 46.875 fps (1024 spf) Compression mode : Lossy Stream size : 148 MiB (8%) Language : English Default : Yes
September 04, 2017
HD WEBRIP
Quality: 5/5 | Source: Official web stream

Submitted by: Ramona Flowers | Trust Rank level: Professional
Format: Torrent | Site: ThePirateBay
720P

Videos Add media

Paris Can Wait Trailer #1 (2017) | Movieclips Trailers
Paris Can Wait Trailer #1 (2017) | Movieclips Trai...

Movie News

There are no member news items for this movie.
To write a comment please register or