Paranormal Activity: Next of Kin

Paranormal Activity: Next of Kin

WDWD   September 16, 2021  
Add to list
Paranormal Activity: Next of Kin

Movie info

Title
Confirmed and upcoming movie titles only! Search before adding to avoid dupes.
Paranormal Activity: Next of Kin
Year
The year the movie is set to be released.
2021
Director
William Eubank
Genre
Pick one or multiple movie genres.
Digital release
Official digital release date on services such as iTunes, Amazon, Netflix. It's the first known release date, without any country restriction. So if it's out on iTunes Russia first, this would be the digital release date.
October 29, 2021
Description
Seventh movie in the Paranormal Activity franchise, starring Emily Bader, Roland Buck III, Dan Lippert, and Henry Ayres-Brown.
Where you watch

Where you watch Email alert

Yes, it is available and reported below. Use the alert button to get notified when higher quality versions are available.

Download and stream reports

Is there a Paranormal Activity: Next of Kin torrent? Yes. Reports are available below.
When will Paranormal Activity: Next of Kin be available on VOD? It's set for a October 29, 2021 release.

January 06, 2022
Paranormal.Activity.Next.of.Kin.2021.1080p.AMZN.WEBRip.DDP5.1.x264-TEPES
Video and audio quality: 5/5 | Source: Official web stream

Submitted by: Mr. Meeseeks | Trust Rank level: Supreme Member
Format: Torrent | Site: RARBG
Video ID : 1 Format : AVC Format/Info : Advanced Video Codec Format profile : High@L4 Format settings : CABAC / 4 Ref Frames Format settings, CABAC : Yes Format settings, Reference frames : 4 frames Codec ID : V_MPEG4/ISO/AVC Duration : 1 h 38 min Bit rate mode : Constant Bit rate : 7 467 kb/s Nominal bit rate : 10 000 kb/s Width : 1 920 pixels Height : 800 pixels Display aspect ratio : 2.40:1 Frame rate mode : Constant Frame rate : 24.000 FPS Color space : YUV Chroma subsampling : 4:2:0 Bit depth : 8 bits Scan type : Progressive Bits/(Pixel*Frame) : 0.203 Stream size : 5.13 GiB (92%) Default : Yes Forced : No Color range : Limited Color primaries : BT.709 Transfer characteristics : BT.709 Matrix coefficients : BT.709 Audio ID : 2 Format : E-AC-3 Format/Info : Enhanced AC-3 Commercial name : Dolby Digital Plus Codec ID : A_EAC3 Duration : 1 h 38 min Bit rate mode : Constant Bit rate : 640 kb/s Channel(s) : 6 channels Channel layout : L R C LFE Ls Rs Sampling rate : 48.0 kHz Frame rate : 31.250 FPS (1536 SPF) Compression mode : Lossy Stream size : 451 MiB (8%) Language : English Service kind : Complete Main Default : Yes Forced : No Text #1 ID : 3 Format : UTF-8 Codec ID : S_TEXT/UTF8 Codec ID/Info : UTF-8 Plain Text Duration : 1 h 31 min Bit rate : 48 b/s Count of elements : 1111 Stream size : 32.2 KiB (0%) Language : English Default : No Forced : No Text #2 ID : 4 Format : UTF-8 Codec ID : S_TEXT/UTF8 Codec ID/Info : UTF-8 Plain Text Duration : 1 h 33 min Bit rate : 58 b/s Count of elements : 1386 Stream size : 40.4 KiB (0%) Title : SDH Language : English Default : No Forced : No

Videos Add media

Paranormal Activity: Next of Kin | Teaser | Paramount+
Paranormal Activity: Next of Kin | Teaser | Paramo...