Pain & Glory

Pain & Glory

Hot
MavoyMavoy   February 11, 2019  
Add to list
Pain & Glory

Movie info

Title
Confirmed and upcoming movie titles only! Search before adding to avoid dupes.
Pain & Glory
Year
The year the movie is set to be released.
2019
Genre
Pick one or multiple movie genres.
Cinema release
First cinema release date in any country.
March 22, 2019
Description
New Almodovar is always an important event in the cinema world. Main protagonist of "Pain & Glory" ("Dolor y gloria") is an aging film director, played by Antonio Banderas. Other Almodovar regular, Penelope Cruz, also makes an appearance, it's also a film debut of popular Spanish singer Rosalía.
Where you watch

Where you watch Email alert

Yes, it is available and reported below. Use the alert button to get notified when higher quality versions are available.

Download and stream reports

Is there a Pain & Glory torrent? Yes. Reports are available below.
When will Pain & Glory be available on digital platforms like iTunes, Amazon or Apple+? As of now, there's no release date announced. This includes iTunes, Amazon, Blu-Ray and DVD.

February 14, 2020
Pain.and.Glory.2019.SPANISH.1080p.BluRay.REMUX.AVC.DTS-HD.MA.5.1-FGT
Video and audio quality: 5/5 | Source: BluRay

Submitted by: Mr. Meeseeks | Trust Rank level: Supreme Member
Format: Torrent | Site: RARBG
Video ID : 1 Format : AVC Format/Info : Advanced Video Codec Format profile : High@L4.1 Format settings : CABAC / 2 Ref Frames Format settings, CABAC : Yes Format settings, Reference frames : 2 frames Codec ID : V_MPEG4/ISO/AVC Duration : 1 h 53 min Bit rate mode : Variable Bit rate : 24.8 Mb/s Width : 1 920 pixels Height : 1 080 pixels Display aspect ratio : 16:9 Frame rate mode : Constant Frame rate : 23.976 (24000/1001) FPS Color space : YUV Chroma subsampling : 4:2:0 Bit depth : 8 bits Scan type : Progressive Bits/(Pixel*Frame) : 0.499 Stream size : 19.7 GiB (88%) Title : Pain.and.Glory.2019.SPANISH.1080p.BluRay.REMUX.AVC.DTS-HD.MA.5.1-FGT Language : English Default : No Forced : No Audio #1 ID : 2 Format : DTS XLL Format/Info : Digital Theater Systems Commercial name : DTS-HD Master Audio Codec ID : A_DTS Duration : 1 h 53 min Bit rate mode : Variable Bit rate : 1 902 kb/s Channel(s) : 6 channels Channel layout : C L R Ls Rs LFE Sampling rate : 48.0 kHz Frame rate : 93.750 FPS (512 SPF) Bit depth : 24 bits Compression mode : Lossless Stream size : 1.51 GiB (7%) Title : Pain.and.Glory.2019.SPANISH.1080p.BluRay.REMUX.AVC.DTS-HD.MA.5.1-FGT Language : Spanish Default : Yes Forced : No Audio #2 ID : 3 Format : AC-3 Format/Info : Audio Coding 3 Commercial name : Dolby Digital Codec ID : A_AC3 Duration : 1 h 53 min Bit rate mode : Constant Bit rate : 640 kb/s Channel(s) : 6 channels Channel layout : L R C LFE Ls Rs Sampling rate : 48.0 kHz Frame rate : 31.250 FPS (1536 SPF) Bit depth : 16 bits Compression mode : Lossy Stream size : 520 MiB (2%) Title : Pain.and.Glory.2019.SPANISH.1080p.BluRay.REMUX.AVC.DTS-HD.MA.5.1-FGT Language : English Service kind : Complete Main Default : No Forced : No Audio #3 ID : 4 Format : AC-3 Format/Info : Audio Coding 3 Commercial name : Dolby Digital Codec ID : A_AC3 Duration : 1 h 53 min Bit rate mode : Constant Bit rate : 640 kb/s Channel(s) : 6 channels Channel layout : L R C LFE Ls Rs Sampling rate : 48.0 kHz Frame rate : 31.250 FPS (1536 SPF) Bit depth : 16 bits Compression mode : Lossy Stream size : 520 MiB (2%) Title : Pain.and.Glory.2019.SPANISH.1080p.BluRay.REMUX.AVC.DTS-HD.MA.5.1-FGT Language : French Service kind : Complete Main Default : No Forced : No Text #1 ID : 5 Format : UTF-8 Codec ID : S_TEXT/UTF8 Codec ID/Info : UTF-8 Plain Text Duration : 1 h 46 min Bit rate : 63 b/s Count of elements : 1412 Stream size : 49.5 KiB (0%) Title : English-SRT Language : English Default : Yes Forced : No Text #2 ID : 6 Format : PGS Muxing mode : zlib Codec ID : S_HDMV/PGS Codec ID/Info : Picture based subtitle format used on BDs/HD-DVDs Duration : 1 h 49 min Bit rate : 39.5 kb/s Count of elements : 3087 Stream size : 31.0 MiB (0%) Title : English-PGS Language : English Default : No Forced : No Text #3 ID : 7 Format : PGS Muxing mode : zlib Codec ID : S_HDMV/PGS Codec ID/Info : Picture based subtitle format used on BDs/HD-DVDs Duration : 1 h 46 min Bit rate : 38.2 kb/s Count of elements : 2826 Stream size : 29.1 MiB (0%) Title : English-PGS Language : English Default : No Forced : No Text #4 ID : 8 Format : PGS Muxing mode : zlib Codec ID : S_HDMV/PGS Codec ID/Info : Picture based subtitle format used on BDs/HD-DVDs Duration : 1 h 52 min Bit rate : 32.5 kb/s Count of elements : 2936 Stream size : 26.2 MiB (0%) Title : French-PGS Language : French Default : No Forced : No Text #5 ID : 9 Format : PGS Muxing mode : zlib Codec ID : S_HDMV/PGS Codec ID/Info : Picture based subtitle format used on BDs/HD-DVDs Duration : 1 h 43 min Bit rate : 177 b/s Count of elements : 18 Stream size : 134 KiB (0%) Title : French-FORCED-PGS Language : French Default : No Forced : No
July 13, 2019
Dolor.y.Gloria.2019.1080p.NF.WEB-Rip.DDP5.1.HEVC-DDR[EtHD]
Video and audio quality: 5/5 | Source: Official web stream

Submitted by: Mavoy | Trust Rank level: Hero member
Format: Torrent | Site: 1337x
So, Neflix? If so, the subs should show up sooner or later [Video Bitrate]:.............: 3580kb/s [Duration]:.............: 1 h 53 min [Video Codec]:.............: HEVC [Resolution]:.............: 1920x1032 px [Aspect Ratio]:.............: 1.85:1 [Audio Codec]:.............: E-AC-3 [Audio Bitrate]:.............: 640kb/s [Audio Channels]:.............: 5.1ch [Audio Language]:.............: Spanish
July 13, 2019
Dolor.Y.Gloria.2019.DVDRip.Castilian.YG
Video and audio quality: 3/5 | Source: DVD

Submitted by: Mavoy | Trust Rank level: Hero member
Format: Torrent | Site: 1337x
Surprise. Hmm, carefully I'd say "3" but it's actually perfectly watchable (judging by the screenshots so far). It doesn't have subtitles though. Video: MPEG4 Video (H264) 720x406 29.97fps [spa] (h264 high L4.1, yuv420p, 720x406) Audio: Dolby AC3 48000Hz stereo 256kbps [spa] (ac3, 48000 Hz, stereo, 256 kb/s)

Videos Add media

PAIN AND GLORY TEASER TRAILER UK
PAIN AND GLORY TEASER TRAILER UK
PAIN AND GLORY Trailer [HD] Pedro Almodovar, Antonio Banderas, Penelope Cruz
PAIN AND GLORY Trailer [HD] Pedro Almodovar, Anton...
DOLOR Y GLORIA. Tráiler Oficial HD.
DOLOR Y GLORIA. Tráiler Oficial HD.