Pacific Rim: Uprising

Pacific Rim: Uprising

Hot
MojibMojib   August 18, 2017  
News (0)
Add to list
Pacific Rim: Uprising
Uprising

Movie info

TITLE
Confirmed and upcoming movie titles only! Search before adding to avoid dupes.
YEAR
The year the movie is set to be released.
2018
GENRE
Pick one or multiple movie genres.
DESCRIPTION
The sequel to Pacific Rim, directed by Steven S. DeKnight. Guillermo del Toro will have co-written the story and has a credit as a producer on the movie. John Boyega from the new Star Wars trilogy has the leading role.
WHERE YOU WATCH

Where you watch Email alert

The movie is online and reported below, Use the alert button to get notified when higher quality versions are available.

Reports

June 08, 2018
Pacific.Rim.Uprising.2018.1080p.BluRay.x264.DTS-HD.MA.7.1-FGT
Video and audio quality: 5/5 | Source: BluRay

Submitted by: Mr. Meeseeks | Trust Rank level: Legend Member
Format: Torrent | Site: RARBG
Video ID : 1 Format : AVC Format/Info : Advanced Video Codec Format profile : [email protected] Format settings : CABAC / 5 Ref Frames Format settings, CABAC : Yes Format settings, ReFrames : 5 frames Codec ID : V_MPEG4/ISO/AVC Duration : 1 h 50 min Bit rate : 9 255 kb/s Width : 1 920 pixels Height : 800 pixels Display aspect ratio : 2.40:1 Frame rate mode : Constant Frame rate : 23.976 FPS Color space : YUV Chroma subsampling : 4:2:0 Bit depth : 8 bits Scan type : Progressive Bits/(Pixel*Frame) : 0.251 Stream size : 7.15 GiB (70%) Title : Pacific.Rim.Uprising.2018.1080p.BluRay.x264.DTS-HD.MA.7.1-FGT Writing library : x264 core 155 r2901 7d0ff22 Language : English Default : Yes Forced : No Audio ID : 2 Format : DTS Format/Info : Digital Theater Systems Format profile : MA / Core Codec ID : A_DTS Duration : 1 h 50 min Bit rate mode : Variable / Constant Bit rate : 4 039 kb/s / 1 509 kb/s Channel(s) : 8 channels / 6 channels Channel positions : Front: L C R, Side: L R, Back: L R, LFE / Front: L C R, Side: L R, LFE Sampling rate : 48.0 kHz Frame rate : 93.750 FPS (512 SPF) Bit depth : 24 bits Compression mode : Lossless / Lossy Stream size : 3.12 GiB (30%) Title : Pacific.Rim.Uprising.2018.1080p.BluRay.x264.DTS-HD.MA.7.1-FGT Language : English Default : Yes Forced : No Text ID : 3 Format : UTF-8 Codec ID : S_TEXT/UTF8 Codec ID/Info : UTF-8 Plain Text Duration : 1 h 40 min Bit rate : 65 b/s Count of elements : 1600 Stream size : 48.4 KiB (0%) Title : English-SRT Language : English Default : Yes Forced : No Menu 00:00:00.000 : en:00:00:00.000 00:06:54.873 : en:00:06:54.873 00:13:05.368 : en:00:13:05.368 00:15:51.075 : en:00:15:51.075 00:20:36.360 : en:00:20:36.360 00:24:49.697 : en:00:24:49.697 00:31:08.241 : en:00:31:08.241 00:37:56.065 : en:00:37:56.065 00:43:37.949 : en:00:43:37.949 00:49:01.939 : en:00:49:01.939 00:53:40.926 : en:00:53:40.926 00:58:12.030 : en:00:58:12.030 01:04:45.006 : en:01:04:45.006 01:09:25.536 : en:01:09:25.536 01:14:36.722 : en:01:14:36.722 01:22:53.427 : en:01:22:53.427 01:29:02.546 : en:01:29:02.546 01:33:10.585 : en:01:33:10.585 01:38:07.381 : en:01:38:07.381 01:40:55.049 : en:01:40:55.049
May 16, 2018
Pacific.Rim.2.Uprising.2018.HDRip.XviD.AC3-EVO
Video and audio quality: 5/5 | Source: Official web stream

Submitted by: Mr. Meeseeks | Trust Rank level: Legend Member
Format: Torrent | Site: TorrentingMe
SOURCE: V: iTunes + A: Korean HDTV ViDEO: 1603 Kbps -2 Passes RESOLUTiON: 720x304 RUNTiME: 1h 50m 43s SUBTiTLES: English (.srt) AUDiO: 192 Kbps AC3 2.0 LANGUAGE: ENGLiSH ENCODER: DdHD
April 18, 2018
Pacific Rim 2 Uprising 2018 HC HDRip XviD AC3-EVO
Video and audio quality: 4/5 | Source: Foreign web stream

Submitted by: Mr. Meeseeks | Trust Rank level: Legend Member
Format: Torrent | Site: 1337x
SIZE:........ 10027008 bytes (9.56 MiB), DURATION:............ 00:00:45, AVG-BITRATE:......... 1783 kb/s AUDIO:....... ac3, 48000 Hz, stereo, 192 kb/s VIDEO:....... mpeg4, yuv420p, 720x304, 29.97 fps(r)
March 21, 2018
Pacific Rim Uprising (2018) English HDCAM-Rip - 700MB - x264 - AAC
Video and audio quality: 1/5 | Source: Camera

Submitted by: armiestice | Trust Rank level: Standard member
Format: Torrent | Site: 1337x
HDCAM RIP

Videos Add media

Teaser trailer
Teaser trailer

Movie News

There are no member news items for this movie.
To write a comment please register or