Over The Moon

Over The Moon

Mr. MeeseeksMr. Meeseeks   September 22, 2020  
Add to list
Over The Moon

Movie info

Title
Confirmed and upcoming movie titles only! Search before adding to avoid dupes.
Over The Moon
Year
The year the movie is set to be released.
2020
Director
Genre
Pick one or multiple movie genres.
Digital release
Official digital release date on services such as iTunes, Amazon, Netflix. It's the first known release date, without any country restriction. So if it's out on iTunes Russia first, this would be the digital release date.
October 23, 2020
Description
Starring Cathy Ang, Robert G Chiu, Phillipa Soo, Ken Jeong, John Cho, Ruthie Ann Miles, Sandra Oh, Margaret Cho, Kimiko Glenn, and Artt Butler.
Where you watch

Where you watch Email alert

Yes, it is available and reported below. Use the alert button to get notified when higher quality versions are available.

Download and stream reports

Can I download or stream Over The Moon? Yes. Reports of pirated torrents and streams are available below.
When will Over The Moon be available on digital platforms like iTunes or Amazon? It's set for a October 23, 2020 release. This likely includes iTunes and Amazon unless it is an exclusive Netflix, or similar, release. Physical versions on Blu-Ray or DVD will likely follow.

October 23, 2020
Over.the.Moon.2020.1080p.NF.WEBRip.x265.10bit.HDR.DDP5.1.Atmos-MZABI
Video and audio quality: 5/5 | Source: Official web stream

Submitted by: Mr. Meeseeks | Trust Rank level: Supreme Member
Format: Torrent | Site: RARBG
Video ID : 1 Format : HEVC Format/Info : High Efficiency Video Coding Format profile : Main 10@L4@Main HDR format : SMPTE ST 2086, HDR10 compatible Codec ID : V_MPEGH/ISO/HEVC Duration : 1 h 35 min Bit rate : 4 534 kb/s Width : 1 920 pixels Height : 1 080 pixels Display aspect ratio : 16:9 Frame rate mode : Constant Frame rate : 24.000 FPS Color space : YUV Chroma subsampling : 4:2:0 (Type 2) Bit depth : 10 bits Bits/(Pixel*Frame) : 0.091 Stream size : 3.02 GiB (85%) Default : Yes Forced : No Color range : Limited Color primaries : BT.2020 Transfer characteristics : PQ Matrix coefficients : BT.2020 non-constant Mastering display color primaries : Display P3 Mastering display luminance : min: 0.0001 cd/m2, max: 1000 cd/m2 Maximum Content Light Level : 723 cd/m2 Maximum Frame-Average Light Level : 229 cd/m2 Audio ID : 2 Format : E-AC-3 JOC Format/Info : Enhanced AC-3 with Joint Object Coding Commercial name : Dolby Digital Plus with Dolby Atmos Codec ID : A_EAC3 Duration : 1 h 40 min Bit rate mode : Constant Bit rate : 768 kb/s Channel(s) : 6 channels Channel layout : L R C LFE Ls Rs Sampling rate : 48.0 kHz Frame rate : 31.250 FPS (1536 SPF) Compression mode : Lossy Stream size : 551 MiB (15%) Title : English Language : English Service kind : Complete Main Default : No Forced : No Complexity index : 16 Number of dynamic objects : 15 Bed channel count : 1 channel Bed channel configuration : LFE

Videos Add media

OVER THE MOON | Official Trailer #2 | Netflix
OVER THE MOON | Official Trailer #2 | Netflix
OVER THE MOON | Official Trailer #1 | A Netflix/Pearl Studio Production
OVER THE MOON | Official Trailer #1 | A Netflix/Pe...