Ophelia

Ophelia

Hot
Mr. MeeseeksMr. Meeseeks   January 22, 2018  
Add to list
Ophelia

Movie info

TITLE
Confirmed and upcoming movie titles only! Search before adding to avoid dupes.
Ophelia
YEAR
The year the movie is set to be released.
2018
GENRE
Pick one or multiple movie genres.
DESCRIPTION
The latest feature film from Australian director Claire McCarthy, “Ophelia”, features an outstanding ensemble unlike any of her previous works. Daisy Ridley stars alongside Naomi Watts, Clive Owen, Tom Felton, George MacKay, and Dominic Mafham. The plot follows the well-known story of ‘Hamlet’, but rather through the perspective of Ophelia. The premiere took place this weekend at the Sundance Film Fetival.
WHERE YOU WATCH

Where you watch Email alert

The movie is online and reported below, Use the alert button to get notified when higher quality versions are available.

Reports

Is Ophelia available online? Yes. Reports of pirated torrents and streams are available below.
When will Ophelia be available on digital platforms like iTunes or Amazon? As of now, there's no release data announced. This includes iTunes, Amazon, Blu-Ray and DVD.

July 02, 2019
Ophelia.2018.1080p.WEB-DL.DD5.1.H264-FGT
Video and audio quality: 5/5 | Source: Official web stream

Submitted by: Mr. Meeseeks | Trust Rank level: Supreme Member
Format: Torrent | Site: RARBG
Video ID : 1 Format : AVC Format/Info : Advanced Video Codec Format profile : [email protected] Format settings : CABAC / 5 Ref Frames Format settings, CABAC : Yes Format settings, ReFrames : 5 frames Codec ID : V_MPEG4/ISO/AVC Duration : 1 h 46 min Bit rate : 4 532 kb/s Width : 1 920 pixels Height : 792 pixels Display aspect ratio : 2.40:1 Frame rate mode : Constant Frame rate : 23.976 (23976/1000) FPS Color space : YUV Chroma subsampling : 4:2:0 Bit depth : 8 bits Scan type : Progressive Bits/(Pixel*Frame) : 0.124 Stream size : 3.37 GiB (92%) Title : Ophelia.2018.1080p.WEB-DL.DD5.1.H264-FGT Language : English Default : Yes Forced : No Color range : Limited Color primaries : BT.709 Transfer characteristics : BT.709 Matrix coefficients : BT.709 Audio ID : 2 Format : AC-3 Format/Info : Audio Coding 3 Commercial name : Dolby Digital Codec ID : A_AC3 Duration : 1 h 46 min Bit rate mode : Constant Bit rate : 384 kb/s Channel(s) : 6 channels Channel layout : L R C LFE Ls Rs Sampling rate : 48.0 kHz Frame rate : 31.250 FPS (1536 SPF) Bit depth : 16 bits Compression mode : Lossy Stream size : 292 MiB (8%) Title : Ophelia.2018.1080p.WEB-DL.DD5.1.H264-FGT Language : English Service kind : Complete Main Default : Yes Forced : No Text ID : 3 Format : UTF-8 Codec ID : S_TEXT/UTF8 Codec ID/Info : UTF-8 Plain Text Duration : 1 h 43 min Bit rate : 44 b/s Count of elements : 1164 Stream size : 33.7 KiB (0%) Language : English Default : Yes Forced : No