Only the Brave

Only the Brave

Alekhya DasAlekhya Das   September 10, 2017  
News (0)
Add to list
Only the Brave

Movie info

TITLE
Confirmed and upcoming movie titles only! Search before adding to avoid dupes.
YEAR
The year the movie is set to be released.
2017
GENRE
Pick one or multiple movie genres.
DESCRIPTION
Only the Brave is based on the true story of the Granite Mountain Hotshots, the heroic story of one unit of local firefighters from Prescott, Arizona who battled a wildfire in Yarnell, AZ in June 2013 that claimed the lives of 19 of their members.
WHERE YOU WATCH

Where you watch Email alert

The movie is online and reported below, Use the alert button to get notified when higher quality versions are available.

Reports

April 07, 2018
Only.The.Brave.2017.1080p.BluRay.x264.DTS-HD.MA.5.1-FGT
Video and audio quality: 5/5 | Source: BluRay

Submitted by: Mr. Meeseeks | Trust Rank level: Legend Member
Format: Torrent | Site: RARBG
Video ID : 1 Format : AVC Format/Info : Advanced Video Codec Format profile : [email protected] Format settings : CABAC / 5 Ref Frames Format settings, CABAC : Yes Format settings, ReFrames : 5 frames Codec ID : V_MPEG4/ISO/AVC Duration : 2 h 14 min Bit rate : 8 998 kb/s Width : 1 920 pixels Height : 808 pixels Display aspect ratio : 2.40:1 Frame rate mode : Constant Frame rate : 23.976 FPS Color space : YUV Chroma subsampling : 4:2:0 Bit depth : 8 bits Scan type : Progressive Bits/(Pixel*Frame) : 0.242 Stream size : 8.42 GiB (80%) Audio ID : 2 Format : DTS Format/Info : Digital Theater Systems Format profile : MA / Core Codec ID : A_DTS Duration : 2 h 14 min Bit rate mode : Variable / Constant Bit rate : 2 253 kb/s / 1 509 kb/s Channel(s) : 6 channels Channel positions : Front: L C R, Side: L R, LFE Sampling rate : 48.0 kHz Frame rate : 93.750 FPS (512 SPF) Bit depth : 16 bits Compression mode : Lossless / Lossy Stream size : 2.11 GiB (20%) Title : Only.The.Brave.2017.1080p.BluRay.x264.DTS-HD.MA.5.1-FGT Language : English Default : Yes Forced : No Text #1 ID : 3 Format : UTF-8 Codec ID : S_TEXT/UTF8 Codec ID/Info : UTF-8 Plain Text Duration : 2 h 3 min Bit rate : 65 b/s Count of elements : 1922 Stream size : 59.1 KiB (0%) Title : English-SRT Language : English Default : Yes Forced : No Text #2 ID : 4 Format : PGS Muxing mode : zlib Codec ID : S_HDMV/PGS Codec ID/Info : Picture based subtitle format used on BDs/HD-DVDs Duration : 2 h 9 min Bit rate : 57.5 kb/s Count of elements : 4546 Stream size : 53.1 MiB (0%) Title : English-PGS Language : English Default : No Forced : No
January 23, 2018
Only The Brave 2017 HDRip AC3-CMRG
Video and audio quality: 5/5 | Source: Official web stream

Submitted by: Mr. Meeseeks | Trust Rank level: Legend Member
Format: Torrent | Site: ExtraTorrent
.

Movie News

There are no member news items for this movie.
To write a comment please register or