Ode to Joy

Ode to Joy

Mr. MeeseeksMr. Meeseeks   July 11, 2019  
Add to list
Ode to Joy

Movie info

TITLE
Confirmed and upcoming movie titles only! Search before adding to avoid dupes.
Ode to Joy
YEAR
The year the movie is set to be released.
2019
DIRECTOR
GENRE
Pick one or multiple movie genres.
CINEMA
First cinema release date in any country.
August 09, 2019
DESCRIPTION
Starring Martin Freeman, Morena Baccarin, Melissa Rauch, Jake Lacy, Shannon Woodward, Jane Curtin, Ellis Rubin, Jackie Seiden, and Adam Shapiro.
WHERE YOU WATCH

Where you watch Email alert

The movie is online and reported below, Use the alert button to get notified when higher quality versions are available.

Reports

Is Ode to Joy available online? Yes. Reports of pirated torrents and streams are available below.
When will Ode to Joy be available on digital platforms like iTunes or Amazon? As of now, there's no release data announced. This includes iTunes, Amazon, Blu-Ray and DVD.

August 09, 2019
Ode.to.Joy.2019.1080p.WEB-DL.DD5.1.H264-FGT
Video and audio quality: 5/5 | Source: Official web stream

Submitted by: Mr. Meeseeks | Trust Rank level: Supreme Member
Format: Torrent | Site: RARBG
Video ID : 1 Format : AVC Format/Info : Advanced Video Codec Format profile : [email protected] Format settings : CABAC / 5 Ref Frames Format settings, CABAC : Yes Format settings, Reference frames : 5 frames Codec ID : V_MPEG4/ISO/AVC Duration : 1 h 37 min Bit rate : 4 587 kb/s Width : 1 920 pixels Height : 790 pixels Display aspect ratio : 2.40:1 Frame rate mode : Constant Frame rate : 23.976 (23976/1000) FPS Color space : YUV Chroma subsampling : 4:2:0 Bit depth : 8 bits Scan type : Progressive Bits/(Pixel*Frame) : 0.126 Stream size : 3.13 GiB (92%) Title : Ode.to.Joy.2019.1080p.WEB-DL.DD5.1.H264-FGT Language : English Default : Yes Forced : No Color range : Limited Color primaries : BT.709 Transfer characteristics : BT.709 Matrix coefficients : BT.709 Audio ID : 2 Format : AC-3 Format/Info : Audio Coding 3 Commercial name : Dolby Digital Codec ID : A_AC3 Duration : 1 h 37 min Bit rate mode : Constant Bit rate : 384 kb/s Channel(s) : 6 channels Channel layout : L R C LFE Ls Rs Sampling rate : 48.0 kHz Frame rate : 31.250 FPS (1536 SPF) Bit depth : 16 bits Compression mode : Lossy Stream size : 268 MiB (8%) Title : Ode.to.Joy.2019.1080p.WEB-DL.DD5.1.H264-FGT Language : English Service kind : Complete Main Default : Yes Forced : No Text #1 ID : 3 Format : UTF-8 Codec ID : S_TEXT/UTF8 Codec ID/Info : UTF-8 Plain Text Duration : 1 h 35 min Bit rate : 87 b/s Count of elements : 1935 Stream size : 61.5 KiB (0%) Language : English Default : Yes Forced : No Text #2 ID : 4 Format : UTF-8 Codec ID : S_TEXT/UTF8 Codec ID/Info : UTF-8 Plain Text Duration : 1 h 36 min Bit rate : 89 b/s Count of elements : 2054 Stream size : 63.5 KiB (0%) Title : SDH Language : English Default : No Forced : No

Videos Add media

Ode to Joy ft. Martin Freeman & Morena Baccarin - Official Trailer I HD I IFC Films
Ode to Joy ft. Martin Freeman & Morena Baccarin - ...