Nostalgia

Nostalgia

Mr. MeeseeksMr. Meeseeks   January 05, 2018  
News (0)
Add to list
Nostalgia

Movie info

TITLE
Confirmed and upcoming movie titles only! Search before adding to avoid dupes.
YEAR
The year the movie is set to be released.
2018
GENRE
Pick one or multiple movie genres.
CINEMA
First cinema release date in any country.
February 16, 2018
DESCRIPTION
The eighth feature film directed by Mark Pellington, “Nostalgia”, is a drama which boasts a fantastic ensemble. The story follows a group of uniquely intertwined characters, each finding their kwn ways to cope with tragedy. Led by Jon Hamm, the cast also includes the likes of Catherine Keener, Bruce Dern, Ellen Burstyn, Amber Tamblyn, Nick Offerman, John Ortiz, Patton Oswalt, Larry Wilmore, Annalise Basso, Mikey Madison, and James LeGros.
WHERE YOU WATCH

Where you watch Email alert

The movie is online and reported below, Use the alert button to get notified when higher quality versions are available.

Reports

April 24, 2018
Nostalgia.2018.720p.BluRay.x264.DTS-MT
Quality: 5/5 | Source: BluRay

Submitted by: Mr. Meeseeks | Trust Rank level: Legend Member
Format: Torrent | Site: RARBG
Video ID : 1 Format : AVC Format/Info : Advanced Video Codec Format profile : High@L4.1 Format settings : CABAC / 12 Ref Frames Format settings, CABAC : Yes Format settings, ReFrames : 12 frames Codec ID : V_MPEG4/ISO/AVC Duration : 1 h 54 min Bit rate : 8 000 kb/s Width : 1 280 pixels Height : 534 pixels Display aspect ratio : 2.40:1 Frame rate mode : Constant Frame rate : 23.976 (24000/1001) FPS Color space : YUV Chroma subsampling : 4:2:0 Bit depth : 8 bits Scan type : Progressive Bits/(Pixel*Frame) : 0.488 Stream size : 6.39 GiB (84%) Writing library : x264 core 152 r2851 ba24899 Audio ID : 2 Format : DTS Format/Info : Digital Theater Systems Codec ID : A_DTS Duration : 1 h 54 min Bit rate mode : Constant Bit rate : 1 509 kb/s Channel(s) : 6 channels Channel positions : Front: L C R, Side: L R, LFE Sampling rate : 48.0 kHz Frame rate : 93.750 FPS (512 SPF) Bit depth : 24 bits Compression mode : Lossy Stream size : 1.21 GiB (16%) Default : Yes Forced : No
April 23, 2018
Nostalgia.2018.BDRip.XviD.AC3-EVO
Quality: 5/5 | Source: Official web stream

Submitted by: Mr. Meeseeks | Trust Rank level: Legend Member
Format: Torrent | Site: TorrentingMe
ViDEO: 1350 Kbps RESOLUTiON: 720x304 RUNTiME: 1h 54m 43s SUBTiTLES: No. AUDiO: 448 Kbps AC3 5.1 LANGUAGE: ENGLiSH ENCODER: DdHD

Videos Add media

Nostalgia Official Trailer #1 (2018) Jon Hamm, Nick Offerman Drama Movie HD
Nostalgia Official Trailer #1 (2018) Jon Hamm, Nic...

Movie News

There are no member news items for this movie.
To write a comment please register or