No One Gets Out Alive

No One Gets Out Alive

Mr. MeeseeksMr. Meeseeks   September 12, 2021  
Add to list
No One Gets Out Alive

Movie info

Title
Confirmed and upcoming movie titles only! Search before adding to avoid dupes.
No One Gets Out Alive
Year
The year the movie is set to be released.
2021
Director
Santiago Menghini
Genre
Pick one or multiple movie genres.
Digital release
Official digital release date on services such as iTunes, Amazon, Netflix. It's the first known release date, without any country restriction. So if it's out on iTunes Russia first, this would be the digital release date.
September 29, 2021
Description
Starring Marc Menchaca, Cristina Rodlo, Victoria Alcock, David Barrera, David Figlioli, Joana Borja, Mitchell Mullen, Alejandro Akara, Jose Palma, Jeff Mirza, Vala Noren, Moronke Akinola, Baba Oyejide, and Pepa Duarte.
Where you watch

Where you watch Email alert

Yes, it is available and reported below. Use the alert button to get notified when higher quality versions are available.

Download and stream reports

Is there a No One Gets Out Alive torrent? Yes. Reports are available below.
When will No One Gets Out Alive be available on VOD? It's set for a September 29, 2021 release.

October 01, 2021
No.One.Gets.Out.Alive.2021.1080p.WEB.H264-PECULATE
Video and audio quality: 5/5 | Source: Official web stream

Submitted by: Mr. Meeseeks | Trust Rank level: Supreme Member
Format: Torrent | Site: RARBG
Video ID : 1 Format : AVC Format/Info : Advanced Video Codec Format profile : High@L4 Format settings : CABAC / 4 Ref Frames Format settings, CABAC : Yes Format settings, Reference frames : 4 frames Codec ID : V_MPEG4/ISO/AVC Duration : 1 h 27 min Bit rate mode : Variable Bit rate : 6 443 kb/s Maximum bit rate : 20.0 Mb/s Width : 1 920 pixels Height : 1 080 pixels Display aspect ratio : 16:9 Frame rate mode : Constant Frame rate : 24.000 FPS Color space : YUV Chroma subsampling : 4:2:0 Bit depth : 8 bits Scan type : Progressive Bits/(Pixel*Frame) : 0.129 Stream size : 3.93 GiB (88%) Writing library : x264 core 148 r2724 dbe0335 Encoding settings : cabac=1 / ref=4 / deblock=1:0:0 / analyse=0x3:0x111 / me=umh / subme=10 / psy=1 / psy_rd=1.00:0.00 / mixed_ref=1 / me_range=120 / chroma_me=1 / trellis=2 / 8x8dct=1 / cqm=0 / deadzone=21,11 / fast_pskip=1 / chroma_qp_offset=-2 / threads=8 / lookahead_threads=2 / sliced_threads=0 / nr=0 / decimate=1 / interlaced=0 / bluray_compat=0 / stitchable=1 / constrained_intra=0 / bframes=16 / b_pyramid=2 / b_adapt=2 / b_bias=0 / direct=3 / weightb=1 / open_gop=0 / weightp=2 / keyint=240 / keyint_min=121 / scenecut=0 / intra_refresh=0 / rc_lookahead=240 / rc=crf / mbtree=1 / crf=16.0 / qcomp=0.50 / qpmin=6 / qpmax=51 / qpstep=4 / vbv_maxrate=20000 / vbv_bufsize=25000 / crf_max=0.0 / nal_hrd=vbr / filler=0 / ip_ratio=1.40 / aq=1:0.80 Language : English Default : Yes Forced : No Audio ID : 2 Format : E-AC-3 JOC Format/Info : Enhanced AC-3 with Joint Object Coding Commercial name : Dolby Digital Plus with Dolby Atmos Codec ID : A_EAC3 Duration : 1 h 27 min Bit rate mode : Constant Bit rate : 768 kb/s Channel(s) : 6 channels Channel layout : L R C LFE Ls Rs Sampling rate : 48.0 kHz Frame rate : 31.250 FPS (1536 SPF) Compression mode : Lossy Stream size : 480 MiB (10%) Language : English Service kind : Complete Main Default : Yes Forced : No Complexity index : 16 Number of dynamic objects : 15 Bed channel count : 1 channel Bed channel configuration : LFE

Videos Add media

No One Gets Out Alive | Official Trailer | Netflix
No One Gets Out Alive | Official Trailer | Netflix