Nekrotronic

Nekrotronic

Hot
Ivana 🌿Ivana 🌿   June 28, 2019  
Add to list
Nekrotronic

Movie info

Title
Confirmed and upcoming movie titles only! Search before adding to avoid dupes.
Nekrotronic
Year
The year the movie is set to be released.
2019
Genre
Pick one or multiple movie genres.
Cinema release
First cinema release date in any country.
May 02, 2019
Digital release
Official digital release date on services such as iTunes, Amazon, Netflix. It's the first known release date, without any country restriction. So if it's out on iTunes Russia first, this would be the digital release date.
September 10, 2019
Description
Starring Ben O'Toole, Monica Bellucci, David Wenham.
Where you watch

Where you watch Email alert

Yes, it is available and reported below. Use the alert button to get notified when higher quality versions are available.

Download and stream reports

Is there a Nekrotronic torrent? Yes. Reports are available below.
When will Nekrotronic be available on VOD? It's set for a September 10, 2019 release.

August 09, 2019
Nekrotronic.2018.720p.AMZN.WEBRip.DDP5.1.x264-NTG
Video and audio quality: 5/5 | Source: Official web stream

Submitted by: Cupio Dissolvi | Trust Rank level: Standard member
Format: Official stream | Site: Rarbg
Video ID : 1 Format : AVC Format/Info : Advanced Video Codec Format profile : High@L3.1 Format settings : CABAC / 4 Ref Frames Format settings, CABAC : Yes Format settings, Reference frames : 4 frames Codec ID : V_MPEG4/ISO/AVC Duration : 1 h 36 min Bit rate mode : Constant Bit rate : 4 042 kb/s Nominal bit rate : 6 000 kb/s Width : 1 248 pixels Height : 520 pixels Display aspect ratio : 2.40:1 Frame rate mode : Constant Frame rate : 23.976 (24000/1001) FPS Color space : YUV Chroma subsampling : 4:2:0 Bit depth : 8 bits Scan type : Progressive Bits/(Pixel*Frame) : 0.260 Stream size : 2.73 GiB (86%) Default : Yes Forced : No Color range : Limited Color primaries : BT.709 Transfer characteristics : BT.709 Matrix coefficients : BT.709 Audio ID : 2 Format : E-AC-3 Format/Info : Enhanced AC-3 Commercial name : Dolby Digital Plus Codec ID : A_EAC3 Duration : 1 h 36 min Bit rate mode : Constant Bit rate : 640 kb/s Channel(s) : 6 channels Channel layout : L R C LFE Ls Rs Sampling rate : 48.0 kHz Frame rate : 31.250 FPS (1536 SPF) Compression mode : Lossy Stream size : 443 MiB (14%) Language : English Service kind : Complete Main Default : Yes Forced : No Text #1 ID : 3 Format : UTF-8 Codec ID : S_TEXT/UTF8 Codec ID/Info : UTF-8 Plain Text Duration : 1 h 30 min Bit rate : 39 b/s Count of elements : 997 Stream size : 26.6 KiB (0%) Language : English Default : No Forced : No Text #2 ID : 4 Format : UTF-8 Codec ID : S_TEXT/UTF8 Codec ID/Info : UTF-8 Plain Text Duration : 1 h 31 min Bit rate : 49 b/s Count of elements : 1330 Stream size : 32.8 KiB (0%) Title : SDH Language : English Default : No Forced : No

Videos Add media

NEKROTONIC Official Trailer (2019) Monica Bellucci, Sci-Fi Movie HD
NEKROTONIC Official Trailer (2019) Monica Bellucci...