Neat: The Story of Bourbon

Neat: The Story of Bourbon

Hot
Mr. MeeseeksMr. Meeseeks   February 15, 2018  
News (0)
Add to list
Neat: The Story of Bourbon

Movie info

TITLE
Confirmed and upcoming movie titles only! Search before adding to avoid dupes.
YEAR
The year the movie is set to be released.
2018
GENRE
Pick one or multiple movie genres.
CINEMA
First cinema release date in any country.
February 20, 2018
DESCRIPTION
David Altrogge’s documentary “Neat” is a deep dive into the rich backstory of the bourbon industry.
WHERE YOU WATCH

Where you watch Email alert

The movie is online and reported below, Use the alert button to get notified when higher quality versions are available.

Reports

March 18, 2018
Neat The Story Of Bourbon 2018 1080p WEB-DL x264 AAC-eSc
Video and audio quality: 5/5 | Source: Official web stream

Submitted by: Mr. Meeseeks | Trust Rank level: Legend Member
Format: Torrent | Site: TorrentingMe
General Format : MPEG-4 Format profile : Base Media / Version 2 Codec ID : mp42 (isom/iso2/avc1/mp41) File size : 1.24 GiB Duration : 1 h 15 min Overall bit rate mode : Variable Overall bit rate : 2 332 kb/s Encoded date : UTC 2018-03-18 00:31:01 Tagged date : UTC 2018-03-18 01:54:45 Video ID : 1 Format : AVC Format/Info : Advanced Video Codec Format profile : [email protected] Format settings, CABAC : Yes Format settings, RefFrames : 4 frames Codec ID : avc1 Codec ID/Info : Advanced Video Coding Duration : 1 h 15 min Bit rate : 2 200 kb/s Width : 1 920 pixels Height : 1 080 pixels Display aspect ratio : 16:9 Frame rate mode : Variable Frame rate : 23.976 FPS Minimum frame rate : 11.989 FPS Maximum frame rate : 23.981 FPS Color space : YUV Chroma subsampling : 4:2:0 Bit depth : 8 bits Scan type : Progressive Bits/(Pixel*Frame) : 0.044 Stream size : 1.17 GiB (94%) Writing library : x264 core 142 r2479 dd79a61 Encoding settings : cabac=1 / ref=3 / deblock=1:-1:-1 / analyse=0x3:0x113 / me=hex / subme=7 / psy=1 / psy_rd=1.00:0.15 / mixed_ref=1 / me_range=16 / chroma_me=1 / trellis=1 / 8x8dct=1 / cqm=0 / deadzone=21,11 / fast_pskip=1 / chroma_qp_offset=-3 / threads=12 / lookahead_threads=2 / sliced_threads=0 / nr=0 / decimate=1 / interlaced=0 / bluray_compat=0 / constrained_intra=0 / bframes=3 / b_pyramid=2 / b_adapt=1 / b_bias=0 / direct=1 / weightb=1 / open_gop=0 / weightp=2 / keyint=240 / keyint_min=24 / scenecut=40 / intra_refresh=0 / rc_lookahead=40 / rc=2pass / mbtree=1 / bitrate=2200 / ratetol=1.0 / qcomp=0.60 / qpmin=0 / qpmax=69 / qpstep=4 / cplxblur=20.0 / qblur=0.5 / vbv_maxrate=62500 / vbv_bufsize=78125 / nal_hrd=none / filler=0 / ip_ratio=1.40 / aq=1:1.00 Language : English Encoded date : UTC 2018-03-18 00:31:01 Tagged date : UTC 2018-03-18 00:31:01 Color range : Limited Color primaries : BT.709 Transfer characteristics : BT.709 Matrix coefficients : BT.709 Menus : 4 Audio ID : 2 Format : AAC Format/Info : Advanced Audio Codec Format profile : LC Codec ID : 40 Duration : 1 h 15 min Bit rate mode : Variable Bit rate : 125 kb/s Channel(s) : 2 channels Channel positions : Front: L R Sampling rate : 48.0 kHz Frame rate : 46.875 FPS (1024 SPF) Compression mode : Lossy Stream size : 68.2 MiB (5%) Title : Stereo / Stereo Language : English Default : Yes Alternate group : 1 Encoded date : UTC 2018-03-18 00:31:01 Tagged date : UTC 2018-03-18 00:31:01 Menu ID : 4 Codec ID : text Duration : 1 h 15 min Encoded date : UTC 2018-03-18 01:54:45 Tagged date : UTC 2018-03-18 01:54:45 Menu For : 1 00:00:00.000 : Chapter 1 00:15:00.192 : Chapter 2 00:30:00.133 : Chapter Three 00:45:00.158 : Chapter Four 01:00:00.184 : Chapter Five Bit rate mode : VBR

Videos Add media

Neat: The Story of Bourbon (2018) | Official Trailer HD
Neat: The Story of Bourbon (2018) | Official Trail...

Movie News

There are no member news items for this movie.
To write a comment please register or