Ne Zha

Ne Zha

Mr. MeeseeksMr. Meeseeks   August 23, 2019  
Add to list
Ne Zha

Movie info

Title
Confirmed and upcoming movie titles only! Search before adding to avoid dupes.
Ne Zha
Year
The year the movie is set to be released.
2019
Director
Genre
Pick one or multiple movie genres.
Cinema release
First cinema release date in any country.
July 26, 2019
Description
The voice cast includes Lü Yanting, Jiongsen Sefu, Han Mo, Chen Hao, Lü Qi, Yang Wei, and Zhang Jiaming.
Where you watch

Where you watch Email alert

The movie is online and reported below, Use the alert button to get notified when higher quality versions are available.

Download and stream reports

Can I download or stream Ne Zha? Yes. Reports of pirated torrents and streams are available below.
When will Ne Zha be available on digital platforms like iTunes, Amazon or Apple+? As of now, there's no release date announced. This includes iTunes, Amazon, Blu-Ray and DVD.

March 14, 2020
Ne.Zha.2019.CHINESE.1080p.BluRay.REMUX.AVC.DTS-HD.MA.5.1-FGT
Video and audio quality: 5/5 | Source: BluRay

Submitted by: Mr. Meeseeks | Trust Rank level: Supreme Member
Format: Torrent | Site: RARBG
Both English and Chinese languages according to NFO.
February 25, 2020
Ne.Zha.2019.DUBBED.1080p.WEB-DL.DD5.1.H264-FGT
Video and audio quality: 5/5 | Source: Official web stream

Submitted by: Mr. Meeseeks | Trust Rank level: Supreme Member
Format: Torrent | Site: RARBG
Video ID : 1 Format : AVC Format/Info : Advanced Video Codec Format profile : High@L4 Format settings : CABAC / 5 Ref Frames Format settings, CABAC : Yes Format settings, Reference frames : 5 frames Codec ID : V_MPEG4/ISO/AVC Duration : 1 h 50 min Bit rate : 4 459 kb/s Width : 1 920 pixels Height : 802 pixels Display aspect ratio : 2.40:1 Frame rate mode : Constant Frame rate : 24.000 FPS Color space : YUV Chroma subsampling : 4:2:0 Bit depth : 8 bits Scan type : Progressive Bits/(Pixel*Frame) : 0.121 Stream size : 3.43 GiB (92%) Title : Ne.Zha.2019.DUBBED.1080p.WEB-DL.DD5.1.H264-FGT Language : English Default : Yes Forced : No Color range : Limited Color primaries : BT.709 Transfer characteristics : BT.709 Matrix coefficients : BT.709 Audio ID : 2 Format : AC-3 Format/Info : Audio Coding 3 Commercial name : Dolby Digital Codec ID : A_AC3 Duration : 1 h 50 min Bit rate mode : Constant Bit rate : 384 kb/s Channel(s) : 6 channels Channel layout : L R C LFE Ls Rs Sampling rate : 48.0 kHz Frame rate : 31.250 FPS (1536 SPF) Bit depth : 16 bits Compression mode : Lossy Stream size : 302 MiB (8%) Title : Ne.Zha.2019.DUBBED.1080p.WEB-DL.DD5.1.H264-FGT Language : English Service kind : Complete Main Default : Yes Forced : No Text #1 ID : 3 Format : UTF-8 Codec ID : S_TEXT/UTF8 Codec ID/Info : UTF-8 Plain Text Duration : 1 h 47 min Bit rate : 85 b/s Count of elements : 1907 Stream size : 67.7 KiB (0%) Language : English Default : Yes Forced : No Text #2 ID : 4 Format : UTF-8 Codec ID : S_TEXT/UTF8 Codec ID/Info : UTF-8 Plain Text Duration : 1 h 47 min Bit rate : 47 b/s Count of elements : 1372 Stream size : 37.9 KiB (0%) Title : SDH Language : English Default : No Forced : Yes

Videos Add media

NE ZHA (2019) Official Trailer | Epic Animated Chinese Movie
NE ZHA (2019) Official Trailer | Epic Animated Chi...