Mortal Kombat Legends: Scorpion's Revenge

Mortal Kombat Legends: Scorpion's Revenge

Hot
MojibMojib   February 03, 2020  
Add to list
Mortal Kombat Legends- Scorpion's Revenge
Mortal kombat anime 2020 magnet
Mortal kombat anime

Movie info

Title
Confirmed and upcoming movie titles only! Search before adding to avoid dupes.
Mortal Kombat Legends: Scorpion's Revenge
Year
The year the movie is set to be released.
2020
Genre
Pick one or multiple movie genres.
Digital release
Official digital release date on services such as iTunes, Amazon, Netflix. It's the first known release date, without any country restriction. So if it's out on iTunes Russia first, this would be the digital release date.
April 12, 2020
Description
A new Mortal Kombat movie, almost.
We're getting an animated movie as we wait for the reboot to happen. This has a slightly generic story, but sticks true to the source material. Raiden, Sub-Zero, Scorpion, Johnny Cage - They are all there.
Where you watch

Where you watch Email alert

Yes. The movie is online and reported below, Use the alert button to get notified when higher quality versions are available.

Download and stream reports

Can I download or stream Mortal Kombat Legends: Scorpion's Revenge? Yes. Reports of pirated torrents and streams are available below.
When will Mortal Kombat Legends: Scorpion's Revenge be available on digital platforms like iTunes or Amazon? It's set for a April 12, 2020 release. This likely includes iTunes and Amazon unless it is an exclusive Netflix, or similar, release. Physical versions on Blu-Ray or DVD will likely follow.

April 19, 2020
Mortal.Kombat.Legends.Scorpions.Revenge.2020.1080p.BluRay.x264-YOL0W
Video and audio quality: 5/5 | Source: BluRay

Submitted by: Mr. Meeseeks | Trust Rank level: Supreme Member
Format: Torrent | Site: RARBG
Video ID : 1 Format : AVC Format/Info : Advanced Video Codec Format profile : High@L4.1 Format settings : CABAC / 4 Ref Frames Format settings, CABAC : Yes Format settings, Reference frames : 4 frames Codec ID : V_MPEG4/ISO/AVC Duration : 1 h 19 min Bit rate : 8 538 kb/s Width : 1 920 pixels Height : 1 080 pixels Display aspect ratio : 16:9 Frame rate mode : Constant Frame rate : 23.976 (24000/1001) FPS Color space : YUV Chroma subsampling : 4:2:0 Bit depth : 8 bits Scan type : Progressive Bits/(Pixel*Frame) : 0.172 Stream size : 4.77 GiB (77%) Writing library : x264 core 159 r2991 1771b55 Encoding settings : cabac=1 / ref=4 / deblock=1:1:1 / analyse=0x3:0x133 / me=umh / subme=10 / psy=1 / psy_rd=0.80:0.00 / mixed_ref=1 / me_range=24 / chroma_me=1 / trellis=2 / 8x8dct=1 / cqm=0 / deadzone=21,11 / fast_pskip=0 / chroma_qp_offset=-2 / threads=12 / lookahead_threads=2 / sliced_threads=0 / nr=0 / decimate=0 / interlaced=0 / bluray_compat=0 / constrained_intra=0 / bframes=8 / b_pyramid=2 / b_adapt=2 / b_bias=0 / direct=3 / weightb=1 / open_gop=0 / weightp=2 / keyint=250 / keyint_min=23 / scenecut=40 / intra_refresh=0 / rc=crf / mbtree=0 / crf=18.1 / qcomp=0.60 / qpmin=0 / qpmax=69 / qpstep=4 / ip_ratio=1.40 / pb_ratio=1.30 / aq=3:0.90 Language : English Default : Yes Forced : No Audio #1 ID : 2 Format : DTS XLL Format/Info : Digital Theater Systems Commercial name : DTS-HD Master Audio Codec ID : A_DTS Duration : 1 h 19 min Bit rate mode : Variable Bit rate : 2 398 kb/s Channel(s) : 6 channels Channel layout : C L R Ls Rs LFE Sampling rate : 48.0 kHz Frame rate : 93.750 FPS (512 SPF) Bit depth : 16 bits Compression mode : Lossless Stream size : 1.34 GiB (22%) Title : English Language : English Default : Yes Forced : No Audio #2 ID : 3 Format : AAC LC Format/Info : Advanced Audio Codec Low Complexity Codec ID : A_AAC-2 Duration : 1 h 19 min Bit rate : 105 kb/s Channel(s) : 2 channels Channel layout : L R Sampling rate : 48.0 kHz Frame rate : 46.875 FPS (1024 SPF) Compression mode : Lossy Delay relative to video : 9 ms Stream size : 60.2 MiB (1%) Title : Commentary by producer Rick Morales and writer Jeremy Adams Language : English Default : No Forced : No Text #1 ID : 4 Format : PGS Muxing mode : zlib Codec ID : S_HDMV/PGS Codec ID/Info : Picture based subtitle format used on BDs/HD-DVDs Duration : 1 h 17 min Bit rate : 28.6 kb/s Count of elements : 2120 Stream size : 15.8 MiB (0%) Language : English Default : No Forced : No Text #2 ID : 5 Format : PGS Muxing mode : zlib Codec ID : S_HDMV/PGS Codec ID/Info : Picture based subtitle format used on BDs/HD-DVDs Duration : 1 h 19 min Bit rate : 25.2 kb/s Count of elements : 1718 Stream size : 14.3 MiB (0%) Language : French Default : No Forced : No Text #3 ID : 6 Format : PGS Muxing mode : zlib Codec ID : S_HDMV/PGS Codec ID/Info : Picture based subtitle format used on BDs/HD-DVDs Duration : 1 h 17 min Bit rate : 33.4 kb/s Count of elements : 2118 Stream size : 18.5 MiB (0%) Language : German Default : No Forced : No Text #4 ID : 7 Format : PGS Muxing mode : zlib Codec ID : S_HDMV/PGS Codec ID/Info : Picture based subtitle format used on BDs/HD-DVDs Duration : 1 h 19 min Bit rate : 23.0 kb/s Count of elements : 1664 Stream size : 13.1 MiB (0%) Language : Dutch Default : No Forced : No Text #5 ID : 8 Format : PGS Muxing mode : zlib Codec ID : S_HDMV/PGS Codec ID/Info : Picture based subtitle format used on BDs/HD-DVDs Duration : 1 h 19 min Bit rate : 23.4 kb/s Count of elements : 1714 Stream size : 13.3 MiB (0%) Language : Spanish Default : No Forced : No Text #6 ID : 9 Format : PGS Muxing mode : zlib Codec ID : S_HDMV/PGS Codec ID/Info : Picture based subtitle format used on BDs/HD-DVDs Duration : 83 ms Bit rate : 6 746 b/s Count of elements : 2 Stream size : 70.0 Bytes (0%) Language : German Default : No Forced : No
April 12, 2020
Mortal Kombat Legends Scorpions Revenge 2020 1080p WEB-DL DDP5 1 H264-CMRG
Video and audio quality: 5/5 | Source: Official web stream

Submitted by: Mojib | Trust Rank level: Legend Member
Format: Torrent | Site: Iptorrents
There's also an EVO version. This is a 3.99 GiB version, straight from the official digital download.

Videos Add media

Mortal Kombat Legends: Scorpion's Revenge - Exclusive Official Trailer (2020)
Mortal Kombat Legends: Scorpion's Revenge - Exclus...