Misbehaviour

Misbehaviour

Hot
Mr. MeeseeksMr. Meeseeks   December 20, 2019  
Add to list
Misbehaviour

Movie info

Title
Confirmed and upcoming movie titles only! Search before adding to avoid dupes.
Misbehaviour
Year
The year the movie is set to be released.
2020
Genre
Pick one or multiple movie genres.
Cinema release
First cinema release date in any country.
March 13, 2020
Description
Starring Keira Knightley, Gugu Mbatha-Raw, Lesley Manville, Jessie Buckley, Keeley Hawes, Rhys Ifans, Phyllis Logan, Suki Waterhouse, Emma Corrin, and Greg Kinnear.
Where you watch

Where you watch Email alert

Yes, it is available and reported below. Use the alert button to get notified when higher quality versions are available.

Download and stream reports

Is there a Misbehaviour torrent? Yes. Reports are available below.
When will Misbehaviour be available on digital platforms like iTunes, Amazon or Apple+? As of now, there's no release date announced. This includes iTunes, Amazon, Blu-Ray and DVD.

April 19, 2020
Misbehaviour.2020.1080p.WEBRip.DD5.1.x264-CM
Video and audio quality: 5/5 | Source: Official web stream

Submitted by: Mr. Meeseeks | Trust Rank level: Supreme Member
Format: Torrent | Site: RARBG
Video ID : 1 Format : AVC Format/Info : Advanced Video Codec Format profile : High@L4 Format settings : CABAC / 2 Ref Frames Format settings, CABAC : Yes Format settings, Reference frames : 2 frames Codec ID : V_MPEG4/ISO/AVC Duration : 1 h 46 min Bit rate : 6 028 kb/s Width : 1 920 pixels Height : 1 080 pixels Display aspect ratio : 16:9 Frame rate mode : Constant Frame rate : 23.976 (24000/1001) FPS Color space : YUV Chroma subsampling : 4:2:0 Bit depth : 8 bits Scan type : Progressive Bits/(Pixel*Frame) : 0.121 Stream size : 4.48 GiB (94%) Writing library : x264 core 155 r2901 7d0ff22 Default : Yes Forced : No Color range : Limited Color primaries : BT.709 Transfer characteristics : BT.709 Matrix coefficients : BT.709 Audio ID : 2 Format : AC-3 Format/Info : Audio Coding 3 Commercial name : Dolby Digital Codec ID : A_AC3 Duration : 1 h 46 min Bit rate mode : Constant Bit rate : 384 kb/s Channel(s) : 6 channels Channel layout : L R C LFE Ls Rs Sampling rate : 48.0 kHz Frame rate : 31.250 FPS (1536 SPF) Bit depth : 16 bits Compression mode : Lossy Stream size : 292 MiB (6%) Language : English Service kind : Complete Main Default : Yes Forced : No

Videos Add media

MISBEHAVIOUR Trailer  [HD] - Keira Knightley, Gugu Mbatha-Raw, Keeley Hawes & Lesley Manville
MISBEHAVIOUR Trailer [HD] - Keira Knightley, Gugu...