Military Wives

Military Wives

Hot
Mr. MeeseeksMr. Meeseeks   February 18, 2020  
Add to list
Military Wives

Movie info

Title
Confirmed and upcoming movie titles only! Search before adding to avoid dupes.
Military Wives
Year
The year the movie is set to be released.
2020
Director
Peter Cattaneo
Genre
Pick one or multiple movie genres.
Cinema release
First cinema release date in any country.
March 06, 2020
Description
Starring Kristin Scott Thomas, Sharon Horgan, Emma Lowndes, Gaby French, Lara Rossi, Amy James-Kelly, Jason Flemyng, and Greg Wise.
Where you watch

Where you watch Email alert

Yes, it is available and reported below. Use the alert button to get notified when higher quality versions are available.

Download and stream reports

Is there a Military Wives torrent? Yes. Reports are available below.
When will Military Wives be available on digital platforms like iTunes, Amazon or Apple+? As of now, there's no release date announced. This includes iTunes, Amazon, Blu-Ray and DVD.

July 29, 2020
Military.Wives.2019.1080p.BluRay.AVC.DTS-HD.MA.5.1-OCULAR
Video and audio quality: 5/5 | Source: BluRay

Submitted by: Mr. Meeseeks | Trust Rank level: Supreme Member
Format: Torrent | Site: RARBG
Disc Title: Military.Wives.2019.COMPLETE.BLURAY-OCULAR Disc Size: 36,818,155,488 bytes Protection: AACS BDInfo: 0.7.5.9 (compatible layout created by DVDFab 11.0.8.9) PLAYLIST REPORT: Name: 00000.MPLS Length: 1:52:49.262 (h:m:s.ms) Size: 30,178,824,192 bytes Total Bitrate: 35.67 Mbps VIDEO: Codec Bitrate Description ----- ------- ----------- MPEG-4 AVC Video 29993 kbps 1080p / 23.976 fps / 16:9 / High Profile 4.1 AUDIO: Codec Language Bitrate Description ----- -------- ------- ----------- DTS-HD Master Audio English 1825 kbps 5.1 / 48 kHz / 1825 kbps / 16-bit (DTS Core: 5.1 / 48 kHz / 1509 kbps / 16-bit) DTS-HD Master Audio English 1778 kbps 2.0 / 48 kHz / 1778 kbps / 16-bit (DTS Core: 2.0 / 48 kHz / 1509 kbps / 16-bit)
May 22, 2020
Military.Wives.2019.1080p.WEB-DL.DD5.1.H264-FGT
Video and audio quality: 5/5 | Source: Official web stream

Submitted by: Mr. Meeseeks | Trust Rank level: Supreme Member
Format: Torrent | Site: RARBG
Video ID : 1 Format : AVC Format/Info : Advanced Video Codec Format profile : High@L4 Format settings : CABAC / 5 Ref Frames Format settings, CABAC : Yes Format settings, Reference frames : 5 frames Codec ID : V_MPEG4/ISO/AVC Duration : 1 h 52 min Bit rate : 4 571 kb/s Width : 1 912 pixels Height : 792 pixels Display aspect ratio : 2.40:1 Frame rate mode : Constant Frame rate : 23.976 (24000/1001) FPS Color space : YUV Chroma subsampling : 4:2:0 Bit depth : 8 bits Scan type : Progressive Bits/(Pixel*Frame) : 0.126 Stream size : 3.60 GiB (92%) Title : Military.Wives.2019.1080p.WEB-DL.DD5.1.H264-FGT Language : English Default : Yes Forced : No Color range : Limited Color primaries : BT.709 Transfer characteristics : BT.709 Matrix coefficients : BT.709 Audio ID : 2 Format : AC-3 Format/Info : Audio Coding 3 Commercial name : Dolby Digital Codec ID : A_AC3 Duration : 1 h 52 min Bit rate mode : Constant Bit rate : 384 kb/s Channel(s) : 6 channels Channel layout : L R C LFE Ls Rs Sampling rate : 48.0 kHz Frame rate : 31.250 FPS (1536 SPF) Compression mode : Lossy Delay relative to video : -42 ms Stream size : 310 MiB (8%) Title : Military.Wives.2019.1080p.WEB-DL.DD5.1.H264-FGT Language : English Service kind : Complete Main Default : Yes Forced : No Text ID : 3 Format : UTF-8 Codec ID : S_TEXT/UTF8 Codec ID/Info : UTF-8 Plain Text Duration : 1 h 46 min Bit rate : 69 b/s Count of elements : 1655 Stream size : 53.6 KiB (0%) Language : English Default : Yes Forced : No

Videos Add media

MILITARY WIVES | Official Trailer | Bleecker Street
MILITARY WIVES | Official Trailer | Bleecker Stree...