Miles Davis: Birth of the Cool

Miles Davis: Birth of the Cool

Hot
Mr. MeeseeksMr. Meeseeks   August 20, 2019  
Add to list
Miles Davis: Birth of the Cool

Movie info

Title
Confirmed and upcoming movie titles only! Search before adding to avoid dupes.
Miles Davis: Birth of the Cool
Year
The year the movie is set to be released.
2019
Genre
Pick one or multiple movie genres.
Cinema release
First cinema release date in any country.
August 23, 2019
Description
Documentary film about legendary musician Miles Davis.
Where you watch

Where you watch Email alert

Yes, it is available and reported below. Use the alert button to get notified when higher quality versions are available.

Download and stream reports

Is there a Miles Davis: Birth of the Cool torrent? Yes. Reports are available below.
When will Miles Davis: Birth of the Cool be available on digital platforms like iTunes, Amazon or Apple+? As of now, there's no release date announced. This includes iTunes, Amazon, Blu-Ray and DVD.

May 01, 2020
Miles.Davis.Birth.Of.The.Cool.2019.1080p.BluRay.REMUX.AVC.DTS-HD.MA.5.1-FGT
Video and audio quality: 5/5 | Source: BluRay

Submitted by: Mr. Meeseeks | Trust Rank level: Supreme Member
Format: Torrent | Site: RARBG
Video ID : 1 Format : AVC Format/Info : Advanced Video Codec Format profile : High@L4.1 Format settings : CABAC / 4 Ref Frames Format settings, CABAC : Yes Format settings, Reference frames : 4 frames Codec ID : V_MPEG4/ISO/AVC Duration : 1 h 55 min Bit rate mode : Variable Bit rate : 29.6 Mb/s Maximum bit rate : 33.0 Mb/s Width : 1 920 pixels Height : 1 080 pixels Display aspect ratio : 16:9 Frame rate mode : Constant Frame rate : 23.976 (24000/1001) FPS Color space : YUV Chroma subsampling : 4:2:0 Bit depth : 8 bits Scan type : Progressive Bits/(Pixel*Frame) : 0.595 Stream size : 23.8 GiB (88%) Title : Miles.Davis.Birth.Of.The.Cool.2019.1080p.BluRay.REMUX.AVC.DTS-HD.MA.5.1-FGT Language : English Default : No Forced : No Audio #1 ID : 2 Format : DTS XLL Format/Info : Digital Theater Systems Commercial name : DTS-HD Master Audio Codec ID : A_DTS Duration : 1 h 55 min Bit rate mode : Variable Bit rate : 2 559 kb/s Channel(s) : 6 channels Channel layout : C L R Ls Rs LFE Sampling rate : 48.0 kHz Frame rate : 93.750 FPS (512 SPF) Bit depth : 16 bits Compression mode : Lossless Stream size : 2.06 GiB (8%) Title : Miles.Davis.Birth.Of.The.Cool.2019.1080p.BluRay.REMUX.AVC.DTS-HD.MA.5.1-FGT Language : English Default : Yes Forced : No Audio #2 ID : 3 Format : PCM Format settings : Little / Signed Codec ID : A_PCM/INT/LIT Duration : 1 h 55 min Bit rate mode : Constant Bit rate : 1 536 kb/s Channel(s) : 2 channels Sampling rate : 48.0 kHz Frame rate : 30.000 FPS (1600 SPF) Bit depth : 16 bits Stream size : 1.23 GiB (5%) Title : Miles.Davis.Birth.Of.The.Cool.2019.1080p.BluRay.REMUX.AVC.DTS-HD.MA.5.1-FGT Language : English Default : No Forced : No Text #1 ID : 4 Format : UTF-8 Codec ID : S_TEXT/UTF8 Codec ID/Info : UTF-8 Plain Text Duration : 1 h 31 min Bit rate : 2 b/s Count of elements : 43 Stream size : 1.83 KiB (0%) Title : English-FORCED-SRT Language : English Default : Yes Forced : No Text #2 ID : 5 Format : UTF-8 Codec ID : S_TEXT/UTF8 Codec ID/Info : UTF-8 Plain Text Duration : 1 h 51 min Bit rate : 72 b/s Count of elements : 1317 Stream size : 59.6 KiB (0%) Title : English-SRT Language : English Default : No Forced : No Text #3 ID : 6 Format : UTF-8 Codec ID : S_TEXT/UTF8 Codec ID/Info : UTF-8 Plain Text Duration : 1 h 51 min Bit rate : 78 b/s Count of elements : 1465 Stream size : 64.5 KiB (0%) Title : English-SDH-SRT Language : English Default : No Forced : No Text #4 ID : 7 Format : PGS Muxing mode : zlib Codec ID : S_HDMV/PGS Codec ID/Info : Picture based subtitle format used on BDs/HD-DVDs Duration : 1 h 51 min Bit rate : 42.0 kb/s Count of elements : 2782 Stream size : 33.6 MiB (0%) Title : English-PGS Language : English Default : No Forced : No Text #5 ID : 8 Format : PGS Muxing mode : zlib Codec ID : S_HDMV/PGS Codec ID/Info : Picture based subtitle format used on BDs/HD-DVDs Duration : 1 h 51 min Bit rate : 39.3 kb/s Count of elements : 2636 Stream size : 31.4 MiB (0%) Title : German-PGS Language : German Default : No Forced : No Text #6 ID : 9 Format : PGS Muxing mode : zlib Codec ID : S_HDMV/PGS Codec ID/Info : Picture based subtitle format used on BDs/HD-DVDs Duration : 1 h 51 min Bit rate : 41.3 kb/s Count of elements : 2756 Stream size : 33.1 MiB (0%) Title : Spanish-PGS Language : Spanish Default : No Forced : No Text #7 ID : 10 Format : PGS Muxing mode : zlib Codec ID : S_HDMV/PGS Codec ID/Info : Picture based subtitle format used on BDs/HD-DVDs Duration : 1 h 51 min Bit rate : 38.9 kb/s Count of elements : 2720 Stream size : 31.1 MiB (0%) Title : French-PGS Language : French Default : No Forced : No Text #8 ID : 11 Format : PGS Muxing mode : zlib Codec ID : S_HDMV/PGS Codec ID/Info : Picture based subtitle format used on BDs/HD-DVDs Duration : 1 h 51 min Bit rate : 40.0 kb/s Count of elements : 2762 Stream size : 32.0 MiB (0%) Title : Portuguese-PGS Language : Portuguese Default : No Forced : No
March 10, 2020
Miles.Davis.Birth.of.the.Cool.2019.1080p.NF.WEBRip.DDP5.1.x264-WELP
Video and audio quality: 5/5 | Source: Official web stream

Submitted by: Mavoy | Trust Rank level: Hero member
Format: Torrent | Site: 1337x
Container = Matroska (mkv) Duration = 01:55:08.192 Filesize = 6 GiB Overall bitrate = 8 053 kb/s ViDEO Codec info = AVC Main@L4 | V_MPEG4/ISO/AVC Resolution = 1920x1080 Display AR = 1.778 | 16:9 Bitrate = 7 500 kb/s Framerate = CFR 23.976 Color space = YUV Chroma subsampling = 4:2:0 Encoder = x264 - core 148 r2717 0d2410d AUDiO Codec info = E-AC-3 | A_EAC3 Channels = 6 Bitrate = CBR 640 kb/s Samplerate = 48.0 kHz Language = English

Videos Add media

Miles Davis: Birth Of The Cool (2019)
Miles Davis: Birth Of The Cool (2019)