Midway

Midway

Hot
Mr. MeeseeksMr. Meeseeks   April 28, 2019  
Add to list
Midway

Movie info

Title
Confirmed and upcoming movie titles only! Search before adding to avoid dupes.
Midway
Year
The year the movie is set to be released.
2019
Genre
Pick one or multiple movie genres.
Cinema release
First cinema release date in any country.
November 08, 2019
Digital release
Official digital release date on services such as iTunes, Amazon, Netflix. It's the first known release date, without any country restriction. So if it's out on iTunes Russia first, this would be the digital release date.
February 04, 2020
Description
Starring Woody Harrelson, Luke Evans, Mandy Moore, Patrick Wilson, Ed Skrein, Luke Kleintank, Aaron Eckhart, Nick Jonas, Darren Criss, Dennis Quaid, Alexander Ludwig, Tadanobu Asano, Keean Johnson, Jun Kunimura, Etsushi Toyokawa, Brandon Sklenar, James Carpinello, and Mark Rolston.
Where you watch

Where you watch Email alert

Yes, it is available and reported below. Use the alert button to get notified when higher quality versions are available.

Download and stream reports

Is there a Midway torrent? Yes. Reports are available below.
When will Midway be available on VOD? It's set for a February 04, 2020 release.

February 06, 2020
Midway.2019.1080p.BluRay.1600MB.DD5.1.x264-GalaxyRG
Video and audio quality: 5/5 | Source: BluRay

Submitted by: Costa | Trust Rank level: Legend Member
Format: Torrent | Site: torrentgalaxy
Included subtitles: English MEDIAINFO: Container = Matroska (mkv) Duration = 02:18:24.352 Filesize = 2 GiB Overall bitrate = 1 659 kb/s Video Codec info = AVC High@L4 | V_MPEG4/ISO/AVC Resolution = 1920x816 Display AR = 2.376 | 2.40:1 Bitrate = 8 384 kb/s Framerate = VFR 23.976 Color space = YUV Chroma subsampling = 4:2:0 Encoder = x264 - core 157 Audio Codec info = AC-3 | A_AC3 Channels = 6 Bitrate = CBR 320 kb/s Samplerate = 48.0 kHz Language = English
February 04, 2020
Midway.2019.1080p.WEB-DL.DD5.1.H264-FGT
Video and audio quality: 5/5 | Source: Official web stream

Submitted by: armiestice | Trust Rank level: Senior Member
Format: Torrent | Site: RARBG
Video ID : 1 Format : AVC Format/Info : Advanced Video Codec Format profile : High@L4 Format settings : CABAC / 5 Ref Frames Format settings, CABAC : Yes Format settings, Reference frames : 5 frames Codec ID : V_MPEG4/ISO/AVC Duration : 2 h 18 min Bit rate : 4 458 kb/s Width : 1 920 pixels Height : 798 pixels Display aspect ratio : 2.40:1 Frame rate mode : Constant Frame rate : 23.976 FPS Color space : YUV Chroma subsampling : 4:2:0 Bit depth : 8 bits Scan type : Progressive Bits/(Pixel*Frame) : 0.121 Stream size : 4.31 GiB (92%) Title : Midway.2019.1080p.WEB-DL.DD5.1.H264-FGT Language : English Default : Yes Forced : No Color range : Limited Color primaries : BT.709 Transfer characteristics : BT.709 Matrix coefficients : BT.709 Audio ID : 2 Format : AC-3 Format/Info : Audio Coding 3 Commercial name : Dolby Digital Codec ID : A_AC3 Duration : 2 h 18 min Bit rate mode : Constant Bit rate : 384 kb/s Channel(s) : 6 channels Channel layout : L R C LFE Ls Rs Sampling rate : 48.0 kHz Frame rate : 31.250 FPS (1536 SPF) Bit depth : 16 bits Compression mode : Lossy Stream size : 380 MiB (8%) Title : Midway.2019.1080p.WEB-DL.DD5.1.H264-FGT Language : English Service kind : Complete Main Default : Yes Forced : No
January 12, 2020
Midway.2019.READNFO.1080p.HDRip.X264-EVO
Video and audio quality: 4/5 | Source: Foreign web stream

Submitted by: Mavoy | Trust Rank level: Hero member
Format: Torrent | Site: 1337x
Chinese stream, but no subtitles. Line audio. Overall bit rate : 3 963 kb/s
November 12, 2019
Midway.2019.720p.HDCAM.900MB.getb8.x264-BONSAI
Video and audio quality: 1/5 | Source: Camera

Submitted by: Mr. Meeseeks | Trust Rank level: Supreme Member
Format: Torrent | Site: TorrentGalaxy
Container = Matroska (mkv) Duration = 02:09:27.637 Filesize = 898 MiB Overall bitrate = 970 kb/s Video Codec info = AVC High@L3.1 | V_MPEG4/ISO/AVC Resolution = 1280x544 Display AR = 2.388 | 2.40:1 Bitrate = Framerate = VFR Color space = YUV Chroma subsampling = 4:2:0 Encoder = x264 - core 157 Audio Codec info = AAC | A_AAC-2 Channels = 2 Bitrate = Samplerate = 48.0 kHz Language = English

Videos Add media

MIDWAY Official Trailer (2019) Nick Jonas, Woody Harrelson Movie HD
MIDWAY Official Trailer (2019) Nick Jonas, Woody H...