Midnight Sun

Midnight Sun

Mr. MeeseeksMr. Meeseeks   December 17, 2017  
News (0)
Add to list
Midnight Sun

Movie info

TITLE
Confirmed and upcoming movie titles only! Search before adding to avoid dupes.
YEAR
The year the movie is set to be released.
2018
DIRECTOR
GENRE
Pick one or multiple movie genres.
CINEMA
First cinema release date in any country.
March 22, 2018
DESCRIPTION
Scott Speer’s second feature film, “Midnight Sun”, is an English remake of the 2006 Japanese film “Taiyō no Uta”. Bella Thorne stars as a teenage girl suffering from xeroderma pigmentosum (say that five times fast), her inability to heal from sunburn led her to live a sheltered childhood. Katie Price, aged seventeen, who begins leaving her home after sundown to play her guitar at the local train station. Still finding herself stuck at home during sunlight, chaperoned by her father (Rob Riggle), while under the moonlight Katie starts to finally live the life she always dreamed. She soon becomes infatuated with an older boy named Charlie, portrayed by Patrick Schwarzenegger, the two quickly begin to date one another despite Katie’s eventual decision to hide the truth from him.
WHERE YOU WATCH

Where you watch Email alert

The movie is online and reported below, Use the alert button to get notified when higher quality versions are available.

Reports

June 06, 2018
Midnight.Sun.2018.720p.BluRay.x264-DRONES
Video and audio quality: 5/5 | Source: BluRay

Submitted by: Mr. Meeseeks | Trust Rank level: Legend Member
Format: Torrent | Site: RARBG
Video ID : 1 Format : AVC Format/Info : Advanced Video Codec Format profile : [email protected] Format settings : CABAC / 5 Ref Frames Format settings, CABAC : Yes Format settings, RefFrames : 5 frames Codec ID : V_MPEG4/ISO/AVC Duration : 1 h 31 min Bit rate : 5 300 kb/s Width : 1 280 pixels Height : 536 pixels Display aspect ratio : 2.40:1 Frame rate mode : Constant Frame rate : 23.976 FPS Color space : YUV Chroma subsampling : 4:2:0 Bit depth : 8 bits Scan type : Progressive Bits/(Pixel*Frame) : 0.322 Stream size : 3.40 GiB (78%) Writing library : x264 core 155 r2901 7d0ff22 Language : English Default : Yes Forced : No Audio ID : 2 Format : DTS Format/Info : Digital Theater Systems Mode : 16 Format settings, Endianness : Big Codec ID : A_DTS Duration : 1 h 31 min Bit rate mode : Constant Bit rate : 1 509 kb/s Channel(s) : 6 channels Channel positions : Front: L C R, Side: L R, LFE Sampling rate : 48.0 kHz Frame rate : 93.750 FPS (512 SPF) Bit depth : 24 bits Compression mode : Lossy Stream size : 992 MiB (22%) Language : English Default : Yes Forced : No Menu 00:00:00.000 : en:00:00:00.000 00:04:00.991 : en:00:04:00.991 00:09:32.113 : en:00:09:32.113 00:14:23.988 : en:00:14:23.988 00:20:52.585 : en:00:20:52.585 00:24:16.205 : en:00:24:16.205 00:30:14.187 : en:00:30:14.187 00:34:13.760 : en:00:34:13.760 00:37:46.806 : en:00:37:46.806 00:42:48.357 : en:00:42:48.357 00:47:28.095 : en:00:47:28.095 00:53:23.450 : en:00:53:23.450 00:57:34.242 : en:00:57:34.242 01:01:31.813 : en:01:01:31.813 01:04:15.393 : en:01:04:15.393 01:07:27.210 : en:01:07:27.210 01:10:06.077 : en:01:10:06.077 01:15:36.866 : en:01:15:36.866 01:19:39.775 : en:01:19:39.775 01:26:21.176 : en:01:26:21.176
June 05, 2018
Midnight.Sun.2018.1080p.WEB-DL.DD5.1.H264-FGT
Video and audio quality: 5/5 | Source: Official web stream

Submitted by: Mr. Meeseeks | Trust Rank level: Legend Member
Format: Torrent | Site: RARBG
Video ID : 1 Format : AVC Format/Info : Advanced Video Codec Format profile : [email protected] Format settings : CABAC / 5 Ref Frames Format settings, CABAC : Yes Format settings, ReFrames : 5 frames Codec ID : V_MPEG4/ISO/AVC Duration : 1 h 31 min Bit rate : 4 546 kb/s Width : 1 916 pixels Height : 794 pixels Display aspect ratio : 2.40:1 Frame rate mode : Constant Frame rate : 23.976 FPS Color space : YUV Chroma subsampling : 4:2:0 Bit depth : 8 bits Scan type : Progressive Bits/(Pixel*Frame) : 0.125 Stream size : 2.92 GiB (92%) Title : Midnight.Sun.2018.1080p.WEB-DL.DD5.1.H264-FGT Language : English Default : Yes Forced : No Color range : Limited Color primaries : BT.709 Transfer characteristics : BT.709 Matrix coefficients : BT.709 Audio ID : 2 Format : AC-3 Format/Info : Audio Coding 3 Codec ID : A_AC3 Duration : 1 h 31 min Bit rate mode : Constant Bit rate : 384 kb/s Channel(s) : 6 channels Channel positions : Front: L C R, Side: L R, LFE Sampling rate : 48.0 kHz Frame rate : 31.250 FPS (1536 SPF) Bit depth : 16 bits Compression mode : Lossy Stream size : 252 MiB (8%) Title : Midnight.Sun.2018.1080p.WEB-DL.DD5.1.H264-FGT Language : English Service kind : Complete Main Default : Yes Forced : No Menu 00:00:00.000 : en:1 00:04:01.991 : en:2 00:09:33.113 : en:3 00:14:24.988 : en:4 00:20:53.584 : en:5 00:24:17.204 : en:6 00:30:15.186 : en:7 00:34:14.758 : en:8 00:37:47.803 : en:9 00:42:49.353 : en:10 00:47:29.090 : en:11 00:53:24.445 : en:12 00:57:35.236 : en:13 01:01:32.806 : en:14 01:04:16.385 : en:15 01:07:28.200 : en:16 01:10:07.066 : en:17 01:15:37.854 : en:18 01:19:40.762 : en:19 01:26:22.162 : en:20

Videos Add media

Midnight Sun | Official Trailer | In Theaters March 23
Midnight Sun | Official Trailer | In Theaters Marc...

Movie News

There are no member news items for this movie.
To write a comment please register or