Mercury 13

Mercury 13

Mr. MeeseeksMr. Meeseeks   April 11, 2018  
News (0)
Add to list
Mercury 13

Movie info

TITLE
Confirmed and upcoming movie titles only! Search before adding to avoid dupes.
YEAR
The year the movie is set to be released.
2018
GENRE
Pick one or multiple movie genres.
CINEMA
First cinema release date in any country.
April 20, 2018
DESCRIPTION
This documentary follows a group of women who were tested for space travel in 1961, but were denied by the sexists in their industry, who only chose men for the mission.
WHERE YOU WATCH

Where you watch Email alert

The movie is online and reported below, Use the alert button to get notified when higher quality versions are available.

Reports

April 20, 2018
Mercury.13.2018.1080p.WEB.x264-STRiFE
Video and audio quality: 5/5 | Source: Official web stream

Submitted by: Mr. Meeseeks | Trust Rank level: Legend Member
Format: Torrent | Site: RARBG
Video ID : 1 Format : AVC Format/Info : Advanced Video Codec Format profile : [email protected] Format settings : CABAC / 3 Ref Frames Format settings, CABAC : Yes Format settings, RefFrames : 3 frames Codec ID : V_MPEG4/ISO/AVC Duration : 1 h 19 min Bit rate mode : Variable Bit rate : 7 500 kb/s Maximum bit rate : 11.2 Mb/s Width : 1 920 pixels Height : 1 080 pixels Display aspect ratio : 16:9 Frame rate mode : Constant Frame rate : 23.976 (24000/1001) FPS Color space : YUV Chroma subsampling : 4:2:0 Bit depth : 8 bits Scan type : Progressive Bits/(Pixel*Frame) : 0.151 Stream size : 3.97 GiB (95%) Writing library : x264 core 1 Audio ID : 2 Format : AC-3 Format/Info : Audio Coding 3 Format settings, Endianness : Big Codec ID : A_AC3 Duration : 1 h 19 min Bit rate mode : Constant Bit rate : 384 kb/s Channel(s) : 6 channels Channel positions : Front: L C R, Side: L R, LFE Sampling rate : 48.0 kHz Frame rate : 31.250 FPS (1536 SPF) Bit depth : 16 bits Compression mode : Lossy Stream size : 218 MiB (5%) Language : English Service kind : Complete Main Default : Yes Forced : No Text #1 ID : 3 Format : UTF-8 Codec ID : S_TEXT/UTF8 Codec ID/Info : UTF-8 Plain Text Duration : 1 h 14 min Bit rate : 82 b/s Count of elements : 946 Stream size : 45.2 KiB (0%) Language : English Default : No Forced : No Text #2 ID : 4 Format : UTF-8 Codec ID : S_TEXT/UTF8 Codec ID/Info : UTF-8 Plain Text Duration : 1 h 18 min Bit rate : 70 b/s Count of elements : 935 Stream size : 40.7 KiB (0%) Language : Dutch Default : No Forced : No Text #3 ID : 5 Format : UTF-8 Codec ID : S_TEXT/UTF8 Codec ID/Info : UTF-8 Plain Text Duration : 1 h 18 min Bit rate : 70 b/s Count of elements : 984 Stream size : 40.4 KiB (0%) Title : European Language : Spanish Default : No Forced : No Text #4 ID : 6 Format : UTF-8 Codec ID : S_TEXT/UTF8 Codec ID/Info : UTF-8 Plain Text Duration : 1 h 18 min Bit rate : 74 b/s Count of elements : 991 Stream size : 42.8 KiB (0%) Language : French Default : No Forced : No Text #5 ID : 7 Format : UTF-8 Codec ID : S_TEXT/UTF8 Codec ID/Info : UTF-8 Plain Text Duration : 1 h 18 min Bit rate : 80 b/s Count of elements : 986 Stream size : 46.0 KiB (0%) Language : German Default : No Forced : No

Videos Add media

Mercury 13 | Official Trailer [HD] | Netflix
Mercury 13 | Official Trailer [HD] | Netflix

Movie News

There are no member news items for this movie.
To write a comment please register or