Marriage Story

Marriage Story

Hot
MavoyMavoy   July 27, 2019  
Add to list
Marriage Story

Movie info

Title
Confirmed and upcoming movie titles only! Search before adding to avoid dupes.
Marriage Story
Year
The year the movie is set to be released.
2019
Genre
Pick one or multiple movie genres.
Cinema release
First cinema release date in any country.
November 06, 2019
Digital release
Official digital release date on services such as iTunes, Amazon, Netflix. It's the first known release date, without any country restriction. So if it's out on iTunes Russia first, this would be the digital release date.
December 06, 2019
Description
"Marriage Story" is a new drama from director Noah Baumbach ("Frances Ha", "The Meyerowitz Stories"). It's described as "a portrait of a marriage breaking up and a family staying together." Scarlett Johansson, Adam Driver, Laura Dern, Alan Alda and Ray Liotta will star. The film will be released by Netflix.
Where you watch

Where you watch Email alert

Yes, it is available and reported below. Use the alert button to get notified when higher quality versions are available.

Download and stream reports

Can I download or stream Marriage Story? Yes. Reports of pirated torrents and streams are available below.
When will Marriage Story be available on digital platforms like iTunes or Amazon? It's set for a December 06, 2019 release. This likely includes iTunes and Amazon unless it is an exclusive Netflix, or similar, release. Physical versions on Blu-Ray or DVD will likely follow.

July 10, 2020
Marriage.Story.2019.1080p.BluRay.x264.DTS-FGT
Video and audio quality: 5/5 | Source: Official web stream

Submitted by: Mr. Meeseeks | Trust Rank level: Supreme Member
Format: Torrent | Site: RARBG
Video ID : 1 Format : AVC Format/Info : Advanced Video Codec Format profile : High@L4.1 Format settings : CABAC / 4 Ref Frames Format settings, CABAC : Yes Format settings, Reference frames : 4 frames Codec ID : V_MPEG4/ISO/AVC Duration : 2 h 17 min Bit rate : 11.5 Mb/s Width : 1 800 pixels Height : 1 080 pixels Display aspect ratio : 5:3 Frame rate mode : Constant Frame rate : 23.976 (24000/1001) FPS Color space : YUV Chroma subsampling : 4:2:0 Bit depth : 8 bits Scan type : Progressive Bits/(Pixel*Frame) : 0.247 Stream size : 11.0 GiB (88%) Title : Marriage.Story.2019.1080p.BluRay.x264.DTS-FGT Writing library : x264 core 148 r2748 97eaef2 Encoding settings : cabac=1 / ref=4 / deblock=1:-2:-2 / analyse=0x3:0x113 / me=umh / subme=9 / psy=1 / psy_rd=1.00:0.15 / mixed_ref=1 / me_range=16 / chroma_me=1 / trellis=2 / 8x8dct=1 / cqm=0 / deadzone=21,11 / fast_pskip=1 / chroma_qp_offset=-3 / threads=24 / lookahead_threads=3 / sliced_threads=0 / nr=0 / decimate=1 / interlaced=0 / bluray_compat=0 / constrained_intra=0 / bframes=3 / b_pyramid=2 / b_adapt=1 / b_bias=0 / direct=3 / weightb=1 / open_gop=0 / weightp=2 / keyint=250 / keyint_min=25 / scenecut=40 / intra_refresh=0 / rc_lookahead=50 / rc=2pass / mbtree=1 / bitrate=11500 / ratetol=1.0 / qcomp=0.60 / qpmin=0 / qpmax=69 / qpstep=4 / cplxblur=20.0 / qblur=0.5 / vbv_maxrate=31250 / vbv_bufsize=31250 / nal_hrd=none / filler=0 / ip_ratio=1.40 / aq=1:1.00 Language : English Default : Yes Forced : No Audio ID : 2 Format : DTS Format/Info : Digital Theater Systems Codec ID : A_DTS Duration : 2 h 17 min Bit rate mode : Constant Bit rate : 1 509 kb/s Channel(s) : 6 channels Channel layout : C L R Ls Rs LFE Sampling rate : 48.0 kHz Frame rate : 93.750 FPS (512 SPF) Bit depth : 24 bits Compression mode : Lossy Stream size : 1.44 GiB (12%) Title : Marriage.Story.2019.1080p.BluRay.x264.DTS-FGT Language : English Default : Yes Forced : No
December 06, 2019
Marriage.Story.2019.1080p.NF.WEB-DL.DDP5.1.x264-CMRG
Video and audio quality: 5/5 | Source: Official web stream

Submitted by: Mavoy | Trust Rank level: Hero member
Format: Torrent | Site: 1337x
[Video Bitrate]:.............: 8115kb/s [Duration]:.............: 2 h 16 min [Video Codec]:.............: AVC [Resolution]:.............: 1920x1080 px [Aspect Ratio]:.............: 16:9 [Audio Codec]:.............: E-AC-3 [Audio Bitrate]:.............: 640kb/s [Audio Channels]:.............: 5.1ch [Audio Language]:.............: English

Videos Add media

Marriage Story | Teaser Trailer (What I Love About Nicole) | Netflix
Marriage Story | Teaser Trailer (What I Love About...
Marriage Story | Teaser Trailer (What I Love About Charlie) | Netflix
Marriage Story | Teaser Trailer (What I Love About...