Magic Camp

Magic Camp

Hot
Ramona FlowersRamona Flowers   September 08, 2017  
Add to list
Magic Camp

Movie info

Title
Confirmed and upcoming movie titles only! Search before adding to avoid dupes.
Magic Camp
Year
The year the movie is set to be released.
2020
Director
Genre
Pick one or multiple movie genres.
Digital release
Official digital release date on services such as iTunes, Amazon, Netflix. It's the first known release date, without any country restriction. So if it's out on iTunes Russia first, this would be the digital release date.
August 14, 2020
Description
The twelfth film by American filmmaker Mark Waters, "Magic Camp", will be released on Disney+ August 14th. Adam DeVine, Jeffrey Tambor, and Gillian Jacobs star in this cheesy flick which is very literally about a magic camp. The supporting cast includes Aldis Hodge, J.J. Totah, Rochelle Aytes, Rosalind Chao, Michael Hitchcock, and Rebecca Metz.
Where you watch

Where you watch Email alert

Yes, it is available and reported below. Use the alert button to get notified when higher quality versions are available.

Download and stream reports

Is there a Magic Camp torrent? Yes. Reports are available below.
When will Magic Camp be available on VOD? It's set for a August 14, 2020 release.

August 14, 2020
Magic.Camp.2020.720p.DSNP.WEBRip.DDP5.1.Atmos.x264-CM
Video and audio quality: 5/5 | Source: Official web stream

Submitted by: Mr. Meeseeks | Trust Rank level: Supreme Member
Format: Torrent | Site: RARBG
Video ID : 1 Format : AVC Format/Info : Advanced Video Codec Format profile : High@L3.1 Format settings : CABAC / 4 Ref Frames Format settings, CABAC : Yes Format settings, Reference frames : 4 frames Codec ID : V_MPEG4/ISO/AVC Duration : 1 h 37 min Bit rate mode : Variable Bit rate : 4 239 kb/s Maximum bit rate : 6 375 kb/s Width : 1 280 pixels Height : 720 pixels Display aspect ratio : 16:9 Frame rate mode : Constant Frame rate : 23.976 (24000/1001) FPS Color space : YUV Chroma subsampling : 4:2:0 Bit depth : 8 bits Scan type : Progressive Bits/(Pixel*Frame) : 0.192 Stream size : 2.90 GiB (85%) Default : Yes Forced : No Color range : Limited Color primaries : BT.709 Transfer characteristics : BT.709 Matrix coefficients : BT.709 Audio ID : 2 Format : E-AC-3 JOC Format/Info : Enhanced AC-3 with Joint Object Coding Commercial name : Dolby Digital Plus with Dolby Atmos Codec ID : A_EAC3 Duration : 1 h 37 min Bit rate mode : Constant Bit rate : 768 kb/s Channel(s) : 6 channels Channel layout : L R C LFE Ls Rs Sampling rate : 48.0 kHz Frame rate : 31.250 FPS (1536 SPF) Compression mode : Lossy Stream size : 538 MiB (15%) Title : English Language : English Service kind : Complete Main Default : Yes Forced : No Complexity index : 14 Number of dynamic objects : 4 Bed channel count : 10 channels Bed channel configuration : L R C LFE Ls Rs Lb Rb Tsl Tsr

Videos Add media

Magic Camp | Official Trailer | Disney+
Magic Camp | Official Trailer | Disney+