Luz

Hot
Mr. MeeseeksMr. Meeseeks   August 03, 2018  
Add to list
Luz

Movie info

Title
Confirmed and upcoming movie titles only! Search before adding to avoid dupes.
Luz
Year
The year the movie is set to be released.
2018
Director
Tilman Singer
Genre
Pick one or multiple movie genres.
Description
Starring Luana Velis, Johannes Benecke, Jan Bluthardt, Lilli Lorenz, Julia Riedler, and Nadja Stübiger.
Where you watch

Where you watch Email alert

Yes, it is available and reported below. Use the alert button to get notified when higher quality versions are available.

Download and stream reports

Is there a Luz torrent? Yes. Reports are available below.
When will Luz be available on digital platforms like iTunes, Amazon or Apple+? As of now, there's no release date announced. This includes iTunes, Amazon, Blu-Ray and DVD.

August 12, 2020
Luz.2018.GERMAN.1080p.BluRay.REMUX.AVC.DTS-HD.MA.5.1-FGT
Video and audio quality: 5/5 | Source: BluRay

Submitted by: Mr. Meeseeks | Trust Rank level: Supreme Member
Format: Torrent | Site: RARBG
Video ID : 1 Format : AVC Format/Info : Advanced Video Codec Format profile : High@L4.1 Format settings : CABAC / 3 Ref Frames Format settings, CABAC : Yes Format settings, Reference frames : 3 frames Codec ID : V_MPEG4/ISO/AVC Duration : 1 h 10 min Bit rate mode : Variable Bit rate : 30.7 Mb/s Maximum bit rate : 39.4 Mb/s Width : 1 920 pixels Height : 1 080 pixels Display aspect ratio : 16:9 Frame rate mode : Constant Frame rate : 24.000 FPS Standard : NTSC Color space : YUV Chroma subsampling : 4:2:0 Bit depth : 8 bits Scan type : Progressive Bits/(Pixel*Frame) : 0.616 Stream size : 15.1 GiB (89%) Title : Luz.2018.GERMAN.1080p.BluRay.REMUX.AVC.DTS-HD.MA.5.1-FGT Writing library : x264pro - Adobe CS Exporter Plug-in Encoding settings : cabac=1 / ref=4 / deblock=1:-2:-2 / analyse=0x3:0x133 / me=umh / subme=10 / psy=1 / psy_rd=1.00:0.25 / mixed_ref=1 / me_range=24 / chroma_me=1 / trellis=2 / 8x8dct=1 / cqm=0 / deadzone=6,6 / fast_pskip=1 / chroma_qp_offset=-4 / threads=12 / lookahead_threads=2 / sliced_threads=0 / slices=4 / nr=0 / decimate=0 / interlaced=0 / bluray_compat=1 / constrained_intra=0 / bframes=3 / b_pyramid=1 / b_adapt=2 / b_bias=0 / direct=3 / weightb=1 / open_gop=0 / weightp=1 / keyint=24 / keyint_min=1 / scenecut=40 / intra_refresh=0 / rc_lookahead=24 / rc=2pass / mbtree=1 / bitrate=30654 / ratetol=1.0 / qcomp=0.80 / qpmin=0 / qpmax=69 / qpstep=4 / cplxblur=20.0 / qblur=0.5 / vbv_maxrate=39388 / vbv_bufsize=30000 / nal_hrd=vbr / ip_ratio=1.10 / aq=1:1.19 Language : English Default : No Forced : No Color range : Limited Color primaries : BT.709 Transfer characteristics : BT.709 Matrix coefficients : BT.709 Audio ID : 2 Format : DTS XLL Format/Info : Digital Theater Systems Commercial name : DTS-HD Master Audio Codec ID : A_DTS Duration : 1 h 10 min Bit rate mode : Variable Bit rate : 3 898 kb/s Channel(s) : 6 channels Channel layout : C L R Ls Rs LFE Sampling rate : 48.0 kHz Frame rate : 93.750 FPS (512 SPF) Bit depth : 24 bits Compression mode : Lossless Stream size : 1.92 GiB (11%) Title : Luz.2018.GERMAN.1080p.BluRay.REMUX.AVC.DTS-HD.MA.5.1-FGT Language : German Default : Yes Forced : No Text #1 ID : 3 Format : PGS Muxing mode : zlib Codec ID : S_HDMV/PGS Codec ID/Info : Picture based subtitle format used on BDs/HD-DVDs Duration : 1 h 4 min Bit rate : 11.3 kb/s Count of elements : 693 Stream size : 5.22 MiB (0%) Title : English-PGS Language : English Default : Yes Forced : No Text #2 ID : 4 Format : PGS Muxing mode : zlib Codec ID : S_HDMV/PGS Codec ID/Info : Picture based subtitle format used on BDs/HD-DVDs Duration : 1 h 10 min Bit rate : 9 056 b/s Count of elements : 621 Stream size : 4.57 MiB (0%) Title : Spanish-PGS Language : Spanish Default : No Forced : No

Videos Add media

Luz - Official Trailer
Luz - Official Trailer
Luz Teaser
Luz Teaser