Logan Lucky

Logan Lucky

SamSam   August 24, 2017  
News (0)
Add to list
Logan Lucky

Movie info

TITLE
Confirmed and upcoming movie titles only! Search before adding to avoid dupes.
YEAR
The year the movie is set to be released.
2017
GENRE
Pick one or multiple movie genres.
DESCRIPTION
Two brothers who believe they're cursed with bad luck try to overcome that by robbing a NASCAR motor speedway.
WHERE YOU WATCH

Where you watch Email alert

The movie is online and reported below, Use the alert button to get notified when higher quality versions are available.

Reports

April 07, 2018
Logan.Lucky.2017.1080p.BluRay.REMUX.AVC.DTS-HD.MA.5.1-FGT
Quality: 5/5 | Source: BluRay

Submitted by: Mr. Meeseeks | Trust Rank level: Hero member
Format: Torrent | Site: RARBG
Video ID : 1 Format : AVC Format/Info : Advanced Video Codec Format profile : High@L4.1 Format settings : CABAC / 4 Ref Frames Format settings, CABAC : Yes Format settings, ReFrames : 4 frames Codec ID : V_MPEG4/ISO/AVC Duration : 1 h 59 min Bit rate mode : Variable Maximum bit rate : 35.0 Mb/s Width : 1 920 pixels Height : 1 080 pixels Display aspect ratio : 16:9 Frame rate mode : Constant Frame rate : 23.976 (24000/1001) FPS Color space : YUV Chroma subsampling : 4:2:0 Bit depth : 8 bits Scan type : Progressive Title : Logan.Lucky.2017.1080p.BluRay.REMUX.AVC.DTS-HD.MA.5.1-FGT Language : English Default : No Forced : No Audio #1 ID : 2 Format : DTS Format/Info : Digital Theater Systems Format profile : MA / Core Codec ID : A_DTS Duration : 1 h 59 min Bit rate mode : Variable / Constant Bit rate : Unknown / 1 509 kb/s Channel(s) : 6 channels Channel positions : Front: L C R, Side: L R, LFE Sampling rate : 48.0 kHz Frame rate : 93.750 FPS (512 SPF) Bit depth : 24 bits Compression mode : Lossless / Lossy Title : Logan.Lucky.2017.1080p.BluRay.REMUX.AVC.DTS-HD.MA.5.1-FGT Language : English Default : Yes Forced : No Audio #2 ID : 3 Format : DTS Format/Info : Digital Theater Systems Codec ID : A_DTS Duration : 1 h 59 min Bit rate mode : Constant Bit rate : 1 509 kb/s Channel(s) : 6 channels Channel positions : Front: L C R, Side: L R, LFE Sampling rate : 48.0 kHz Frame rate : 93.750 FPS (512 SPF) Bit depth : 24 bits Compression mode : Lossy Stream size : 1.25 GiB (4%) Title : Logan.Lucky.2017.1080p.BluRay.REMUX.AVC.DTS-HD.MA.5.1-FGT Language : English Default : No Forced : No Audio #3 ID : 4 Format : DTS Format/Info : Digital Theater Systems Codec ID : A_DTS Duration : 1 h 59 min Bit rate mode : Constant Bit rate : 447 kb/s Channel(s) : 2 channels Channel positions : Front: L R Sampling rate : 48.0 kHz Frame rate : 93.750 FPS (512 SPF) Bit depth : 24 bits Compression mode : Lossy Stream size : 381 MiB (1%) Title : Logan.Lucky.2017.1080p.BluRay.REMUX.AVC.DTS-HD.MA.5.1-FGT Language : English Default : No Forced : No Audio #4 ID : 5 Format : AC-3 Format/Info : Audio Coding 3 Codec ID : A_AC3 Duration : 1 h 59 min Bit rate mode : Constant Bit rate : 192 kb/s Channel(s) : 2 channels Channel positions : Front: L R Sampling rate : 48.0 kHz Frame rate : 31.250 FPS (1536 SPF) Bit depth : 16 bits Compression mode : Lossy Stream size : 163 MiB (1%) Title : Logan.Lucky.2017.1080p.BluRay.REMUX.AVC.DTS-HD.MA.5.1-FGT Language : English Service kind : Complete Main Default : No Forced : No Audio #5 ID : 6 Format : DTS Format/Info : Digital Theater Systems Codec ID : A_DTS Duration : 1 h 59 min Bit rate mode : Constant Bit rate : 768 kb/s Channel(s) : 6 channels Channel positions : Front: L C R, Side: L R, LFE Sampling rate : 48.0 kHz Frame rate : 93.750 FPS (512 SPF) Bit depth : 24 bits Compression mode : Lossy Stream size : 654 MiB (2%) Title : Logan.Lucky.2017.1080p.BluRay.REMUX.AVC.DTS-HD.MA.5.1-FGT Language : French Default : No Forced : No Text #1 ID : 7 Format : PGS Muxing mode : zlib Codec ID : S_HDMV/PGS Codec ID/Info : Picture based subtitle format used on BDs/HD-DVDs Language : English Default : No Forced : No Text #2 ID : 8 Format : PGS Muxing mode : zlib Codec ID : S_HDMV/PGS Codec ID/Info : Picture based subtitle format used on BDs/HD-DVDs Language : Spanish Default : No Forced : No Text #3 ID : 9 Format : PGS Muxing mode : zlib Codec ID : S_HDMV/PGS Codec ID/Info : Picture based subtitle format used on BDs/HD-DVDs Language : French Default : No Forced : No Text #4 ID : 10 Format : PGS Muxing mode : zlib Codec ID : S_HDMV/PGS Codec ID/Info : Picture based subtitle format used on BDs/HD-DVDs Language : French Default : No Forced : No
November 14, 2017
Logan.Lucky.2017.WEB-DL.XviD.MP3-FGT
Quality: 5/5 | Source: Official web stream

Submitted by: Mavoy | Trust Rank level: Standard member
Format: Torrent | Site: RarBG
WEB-DL, 1080p version available.
September 07, 2017
Logan Lucky 2017 TS x264-CPG
Quality: 2/5 | Source: Camera with line audio

Submitted by: Ramona Flowers | Trust Rank level: Professional
Format: Torrent | Site: ThePirateBay
TeleSync
September 06, 2017
CAM
Quality: 1/5 | Source: Camera

Submitted by: Ramona Flowers | Trust Rank level: Professional
Format: Torrent | Site: ThePirateBay
CAM

Videos Add media

LOGAN LUCKY | Official HD Trailer
LOGAN LUCKY | Official HD Trailer

Movie News

There are no member news items for this movie.
To write a comment please register or