Living

Living

JuancoJuanco   September 06, 2022  
Add to list
Living

Movie info

Title
Confirmed and upcoming movie titles only! Search before adding to avoid dupes.
Living
Year
The year the movie is set to be released.
2022
Director
Oliver Hermanus
Genre
Pick one or multiple movie genres.
Where you watch
Description
Set in 1950s London, the film follows Williams, a veteran civil servant buried under office paperwork as the city rebuilds after World War II. Receiving a devastating medical diagnosis, he empties his savings account and heads for the coast. He promises to make his last days a meaningful time, but realizes he doesn't know how to do it. After being whisked into town by a mysterious stranger, Williams is intrigued by a young co-worker who seems to possess the vitality he had lost. With the help of his optimistic colleague, Williams goes to great lengths to make his entourage happy in a surprising way.

English adaptation of the script for 'Ikiru' (1952).

Where you watch Email alert

The movie is online and reported below, Use the alert button to get notified when higher quality versions are available.

Download and stream reports

Is Living available online? Yes. Reports of pirated torrents and streams are available below.
When will Living be available on digital platforms like iTunes, Amazon or Apple+? As of now, there's no release date announced. This includes iTunes, Amazon, Blu-Ray and DVD.

March 03, 2023
Living.2022.1080p.AMZN.WEBRip.DDP5.1.x264-CM
Video and audio quality: 5/5 | Source: Official web stream

Submitted by: Mr. Meeseeks | Trust Rank level: Supreme Member
Format: Torrent | Site: RARBG
Video ID : 1 Format : AVC Format/Info : Advanced Video Codec Format profile : High@L4 Format settings : CABAC / 4 Ref Frames Format settings, CABAC : Yes Format settings, Reference frames : 4 frames Codec ID : V_MPEG4/ISO/AVC Duration : 1 h 42 min Bit rate mode : Constant Bit rate : 9 358 kb/s Nominal bit rate : 10 000 kb/s Width : 1 920 pixels Height : 1 080 pixels Display aspect ratio : 16:9 Frame rate mode : Constant Frame rate : 23.976 (24000/1001) FPS Color space : YUV Chroma subsampling : 4:2:0 Bit depth : 8 bits Scan type : Progressive Bits/(Pixel*Frame) : 0.188 Stream size : 6.70 GiB (94%) Language : English (US) Default : Yes Forced : No Color range : Limited Color primaries : BT.709 Transfer characteristics : BT.709 Matrix coefficients : BT.709 Audio ID : 2 Format : E-AC-3 Format/Info : Enhanced AC-3 Commercial name : Dolby Digital Plus Codec ID : A_EAC3 Duration : 1 h 42 min Bit rate mode : Constant Bit rate : 640 kb/s Channel(s) : 6 channels Channel layout : L R C LFE Ls Rs Sampling rate : 48.0 kHz Frame rate : 31.250 FPS (1536 SPF) Compression mode : Lossy Stream size : 469 MiB (6%) Language : English Service kind : Complete Main Default : Yes Forced : No Text #1 ID : 3 Format : UTF-8 Codec ID : S_TEXT/UTF8 Codec ID/Info : UTF-8 Plain Text Duration : 1 h 36 min Bit rate : 53 b/s Frame rate : 0.206 FPS Count of elements : 1198 Stream size : 38.0 KiB (0%) Language : English (US) Default : No Forced : No