Like a Boss

Like a Boss

Hot
Ivana 🌿Ivana 🌿   September 12, 2019  
Add to list
Like a Boss

Movie info

Title
Confirmed and upcoming movie titles only! Search before adding to avoid dupes.
Like a Boss
Year
The year the movie is set to be released.
2020
Genre
Pick one or multiple movie genres.
Cinema release
First cinema release date in any country.
January 10, 2020
Description
The movie "Like A Boss" is a 2020 comedy film directed by Miguel Arteta. Written by Sam Pitman starred Tiffany Haddish, Rose Byrne, Jennifer Coolidge, Natasha Rothwell, Billy Porter, and Salma Hayek. Basically the story follows two beautiful ladies, friends for that matter, who wants to take back their cosmetics company from the clutches of an industrial Titan. Paramount Pictures released the movie on the 20th of January 2020 and has since grossed over 29.7 million US dollars in the box office, and is gearing up to be one of the most downloaded and streamed R-rated comedies this year.

The movie proceeds with two friends Mia and Mel, who owns a cojoined cosmetics company called "Mia&Mel" while both having very distinct personalities. Mia for one, is a more inventive and practical type while Mel basically just wants to get rich as quickly as she can and then live a life of luxury. But somehow, the company runs into a huge debt and they are forced to get in bed with a dishonest businesswoman by the name Claire Luna, so as to save their moribund company. However, Claire Luna who is the head of a major cosmetic conglomerate intends to steal their business away from them. Luna successfully pushes her luck and got the two friends to fire every single worker in their organisation. She even went as far as advertising one little bad idea the friends had in an attempt to take back their companies at one of her other companies in the movie.

Now the two friends must unite, setting aside their individual differences and do as much as they can to take back their company. Mia and Mel temporarily went their separate ways for a while but they came back together after their friends and families explained to them why they needed each other if they wanted to defeat the business tyrant Luna. While the faced the inevitability of them losing their company, the two friends approached Shay, Luna's former business partner, so that they can start a new company called "Proud Cosmetics". The company intends to sell their new cosmetic product tagged "Ride or Die". This make-up is basically intended to be used by best friends together who will most likely face their nights out and help them be the best they can be. Mia and Mel successfully sell this mind blowing cosmetic product, under the umbrella of their newly found company "Proud Cosmetics", while Claire Luna takes full control of Mia&Mel but still required to pay them 49% of all subsequent earnings.

Why is Like a Boss rated R?
Like a Boss is rated R by the MPAA because of its language, crude sexual material, and drug use. According to reviewers, the movie was deemed not fit for family viewing and had "a coarse and poorly written script that practically has no appeal to adults".
Where you watch

Where you watch Email alert

Yes, it is available and reported below. Use the alert button to get notified when higher quality versions are available.

Download and stream reports

Can I download or stream Like a Boss? Yes. Reports of pirated torrents and streams are available below.
When will Like a Boss be available on digital platforms like iTunes, Amazon or Apple+? As of now, there's no release date announced. This includes iTunes, Amazon, Blu-Ray and DVD.

April 13, 2020
Like.a.Boss.2020.1080p.BluRay.x264.DTS-HD.MA.7.1-FGT
Video and audio quality: 5/5 | Source: BluRay

Submitted by: Mr. Meeseeks | Trust Rank level: Supreme Member
Format: Torrent | Site: RARBG
Video ID : 1 Format : AVC Format/Info : Advanced Video Codec Format profile : High@L4.1 Format settings : CABAC / 5 Ref Frames Format settings, CABAC : Yes Format settings, Reference frames : 5 frames Codec ID : V_MPEG4/ISO/AVC Duration : 1 h 23 min Bit rate : 8 735 kb/s Width : 1 920 pixels Height : 800 pixels Display aspect ratio : 2.40:1 Frame rate mode : Constant Frame rate : 23.976 (24000/1001) FPS Color space : YUV Chroma subsampling : 4:2:0 Bit depth : 8 bits Scan type : Progressive Bits/(Pixel*Frame) : 0.237 Stream size : 5.09 GiB (70%) Title : Like.a.Boss.2020.1080p.BluRay.x264.DTS-HD.MA.7.1-FGT Writing library : x264 core 159 r2991 1771b55 Encoding settings : cabac=1 / ref=5 / deblock=1:0:0 / analyse=0x3:0x113 / me=umh / subme=8 / psy=1 / psy_rd=1.00:0.00 / mixed_ref=1 / me_range=16 / chroma_me=1 / trellis=2 / 8x8dct=1 / cqm=0 / deadzone=21,11 / fast_pskip=0 / chroma_qp_offset=-2 / threads=25 / lookahead_threads=4 / sliced_threads=0 / nr=0 / decimate=1 / interlaced=0 / bluray_compat=0 / constrained_intra=0 / bframes=3 / b_pyramid=2 / b_adapt=1 / b_bias=0 / direct=3 / weightb=1 / open_gop=0 / weightp=2 / keyint=250 / keyint_min=23 / scenecut=40 / intra_refresh=0 / rc_lookahead=50 / rc=2pass / mbtree=1 / bitrate=8735 / ratetol=1.0 / qcomp=0.60 / qpmin=0 / qpmax=69 / qpstep=4 / cplxblur=20.0 / qblur=0.5 / ip_ratio=1.40 / aq=1:1.00 Language : English Default : Yes Forced : No Audio ID : 2 Format : DTS XLL Format/Info : Digital Theater Systems Commercial name : DTS-HD Master Audio Codec ID : A_DTS Duration : 1 h 23 min Bit rate mode : Variable Bit rate : 3 638 kb/s Channel(s) : 8 channels Channel layout : C L R LFE Lb Rb Lss Rss Sampling rate : 48.0 kHz Frame rate : 93.750 FPS (512 SPF) Bit depth : 24 bits Compression mode : Lossless Stream size : 2.12 GiB (29%) Title : Like.a.Boss.2020.1080p.BluRay.x264.DTS-HD.MA.7.1-FGT Language : English Default : Yes Forced : No Text #1 ID : 3 Format : UTF-8 Codec ID : S_TEXT/UTF8 Codec ID/Info : UTF-8 Plain Text Duration : 1 h 20 min Bit rate : 92 b/s Count of elements : 1516 Stream size : 54.4 KiB (0%) Title : English-SRT Language : English Default : Yes Forced : No Text #2 ID : 4 Format : UTF-8 Codec ID : S_TEXT/UTF8 Codec ID/Info : UTF-8 Plain Text Duration : 1 h 20 min Bit rate : 102 b/s Count of elements : 1711 Stream size : 60.5 KiB (0%) Title : English-SDH-SRT Language : English Default : No Forced : No Text #3 ID : 5 Format : PGS Muxing mode : zlib Codec ID : S_HDMV/PGS Codec ID/Info : Picture based subtitle format used on BDs/HD-DVDs Duration : 1 h 20 min Bit rate : 62.6 kb/s Count of elements : 2870 Stream size : 35.9 MiB (0%) Title : English-PGS Language : English Default : No Forced : No
January 09, 2020
Like.a.Boss.2020.720p.HDCAM.900MB.getb8.x264-BONSAI[TGx]
Video and audio quality: 1/5 | Source: Camera

Submitted by: Costa | Trust Rank level: Hero member
Format: Torrent | Site: torrentgalaxy
Please be advised this upload has ads cut or watermarked into the video.

Videos Add media

Like A Boss (2020) – NSFW Trailer – Paramount Pictures
Like A Boss (2020) – NSFW Trailer – Paramount ...
LIKE A BOSS Official Trailer (2020) Salma Hayek, Rose Byrne Movie HD
LIKE A BOSS Official Trailer (2020) Salma Hayek, R...