Light of My Life

Light of My Life

Hot
Mr. MeeseeksMr. Meeseeks   July 24, 2019  
Add to list
Light of My Life

Movie info

Title
Confirmed and upcoming movie titles only! Search before adding to avoid dupes.
Light of My Life
Year
The year the movie is set to be released.
2019
Director
Casey Affleck
Genre
Pick one or multiple movie genres.
Cinema release
First cinema release date in any country.
August 09, 2019
Description
Starring Casey Affleck, Anna Pniowsky, Elisabeth Moss, Tom Bower, Timothy Webber, and Hrothgar Mathews.
Where you watch

Where you watch Email alert

Yes, it is available and reported below. Use the alert button to get notified when higher quality versions are available.

Download and stream reports

Is there a Light of My Life torrent? Yes. Reports are available below.
When will Light of My Life be available on digital platforms like iTunes, Amazon or Apple+? As of now, there's no release date announced. This includes iTunes, Amazon, Blu-Ray and DVD.

August 09, 2019
Light.of.My.Life.2019.1080p.AMZN.WEBRip.DDP5.1.x264-NTG
Video and audio quality: 5/5 | Source: Official web stream

Submitted by: Mr. Meeseeks | Trust Rank level: Supreme Member
Format: Torrent | Site: RARBG
Video ID : 1 Format : AVC Format/Info : Advanced Video Codec Format profile : High@L4 Format settings : CABAC / 4 Ref Frames Format settings, CABAC : Yes Format settings, Reference frames : 4 frames Codec ID : V_MPEG4/ISO/AVC Duration : 1 h 59 min Bit rate mode : Constant Bit rate : 7 273 kb/s Nominal bit rate : 10 000 kb/s Width : 1 920 pixels Height : 1 080 pixels Display aspect ratio : 16:9 Frame rate mode : Constant Frame rate : 23.976 (24000/1001) FPS Color space : YUV Chroma subsampling : 4:2:0 Bit depth : 8 bits Scan type : Progressive Bits/(Pixel*Frame) : 0.146 Stream size : 6.09 GiB (92%) Default : Yes Forced : No Color range : Limited Color primaries : BT.709 Transfer characteristics : BT.709 Matrix coefficients : BT.709 Audio ID : 2 Format : E-AC-3 Format/Info : Enhanced AC-3 Commercial name : Dolby Digital Plus Codec ID : A_EAC3 Duration : 1 h 59 min Bit rate mode : Constant Bit rate : 640 kb/s Channel(s) : 6 channels Channel layout : L R C LFE Ls Rs Sampling rate : 48.0 kHz Frame rate : 31.250 FPS (1536 SPF) Compression mode : Lossy Stream size : 549 MiB (8%) Language : English Service kind : Complete Main Default : Yes Forced : No Text #1 ID : 3 Format : UTF-8 Codec ID : S_TEXT/UTF8 Codec ID/Info : UTF-8 Plain Text Duration : 1 h 54 min Bit rate : 49 b/s Count of elements : 1334 Stream size : 41.1 KiB (0%) Language : English Default : No Forced : No Text #2 ID : 4 Format : UTF-8 Codec ID : S_TEXT/UTF8 Codec ID/Info : UTF-8 Plain Text Duration : 1 h 54 min Bit rate : 53 b/s Count of elements : 1457 Stream size : 44.7 KiB (0%) Title : SDH Language : English Default : No Forced : No

Videos Add media

LIGHT OF MY LIFE Official Trailer (2019) Casey Affleck, Elisabeth Moss Movie HD
LIGHT OF MY LIFE Official Trailer (2019) Casey Aff...
Light Of My Life - Official Trailer
Light Of My Life - Official Trailer