Let's Scare Julie

Let's Scare Julie

Mr. MeeseeksMr. Meeseeks   August 15, 2020  
Add to list
Let's Scare Julie

Movie info

Title
Confirmed and upcoming movie titles only! Search before adding to avoid dupes.
Let's Scare Julie
Year
The year the movie is set to be released.
2020
Director
Genre
Pick one or multiple movie genres.
Digital release
Official digital release date on services such as iTunes, Amazon, Netflix. It's the first known release date, without any country restriction. So if it's out on iTunes Russia first, this would be the digital release date.
October 02, 2020
Description
Starring Troy Leigh-Anne Johnson, Isabel May, Odessa A'zion, Brooke Sorenson, Jessica Sarah Flaum, and Dakota Baccelli.
Where you watch

Where you watch Email alert

Yes, it is available and reported below. Use the alert button to get notified when higher quality versions are available.

Download and stream reports

Is there a Let's Scare Julie torrent? Yes. Reports are available below.
When will Let's Scare Julie be available on VOD? It's set for a October 02, 2020 release.

October 02, 2020
Lets.Scare.Julie.2020.1080p.WEB-DL.DD5.1.H264-FGT
Video and audio quality: 5/5 | Source: Official web stream

Submitted by: Mr. Meeseeks | Trust Rank level: Supreme Member
Format: Torrent | Site: RARBG
Video ID : 1 Format : AVC Format/Info : Advanced Video Codec Format profile : High@L4 Format settings : CABAC / 4 Ref Frames Format settings, CABAC : Yes Format settings, Reference frames : 4 frames Codec ID : V_MPEG4/ISO/AVC Duration : 1 h 23 min Bit rate : 4 989 kb/s Width : 1 912 pixels Height : 1 032 pixels Display aspect ratio : 1.85:1 Frame rate mode : Constant Frame rate : 23.976 (24000/1001) FPS Color space : YUV Chroma subsampling : 4:2:0 Bit depth : 8 bits Scan type : Progressive Bits/(Pixel*Frame) : 0.105 Stream size : 2.89 GiB (93%) Title : Lets.Scare.Julie.2020.1080p.WEB-DL.DD5.1.H264-FGT Language : English Default : Yes Forced : No Color range : Limited Color primaries : BT.709 Transfer characteristics : BT.709 Matrix coefficients : BT.709 Audio ID : 2 Format : AC-3 Format/Info : Audio Coding 3 Commercial name : Dolby Digital Codec ID : A_AC3 Duration : 1 h 23 min Bit rate mode : Constant Bit rate : 384 kb/s Channel(s) : 6 channels Channel layout : L R C LFE Ls Rs Sampling rate : 48.0 kHz Frame rate : 31.250 FPS (1536 SPF) Compression mode : Lossy Stream size : 228 MiB (7%) Title : Lets.Scare.Julie.2020.1080p.WEB-DL.DD5.1.H264-FGT Language : English Service kind : Complete Main Default : Yes Forced : No Text ID : 3 Format : UTF-8 Codec ID : S_TEXT/UTF8 Codec ID/Info : UTF-8 Plain Text Duration : 1 h 16 min Bit rate : 69 b/s Count of elements : 1427 Stream size : 38.8 KiB (0%) Language : English Default : Yes Forced : No

Videos Add media

Let's Scare Julie (2020) - Official Trailer (HD)
Let's Scare Julie (2020) - Official Trailer (HD)