Let Him Go

Let Him Go

Mr. MeeseeksMr. Meeseeks   August 21, 2020  
Add to list
Let Him Go

Movie info

Title
Confirmed and upcoming movie titles only! Search before adding to avoid dupes.
Let Him Go
Year
The year the movie is set to be released.
2020
Genre
Pick one or multiple movie genres.
Cinema release
First cinema release date in any country.
November 06, 2020
Digital release
Official digital release date on services such as iTunes, Amazon, Netflix. It's the first known release date, without any country restriction. So if it's out on iTunes Russia first, this would be the digital release date.
November 25, 2020
Description
Diane Lane & Kevin Costner star as Margaret & George Blackledge, a retired couple grieving the tragic loss of their only son. Leaving behind his widow Lorna, (Kayli Carter) who remarries the abusive Donnie Weboy (Will Brittain), taking her son along to start anew. George & Margaret decide to leave behind their once comfortable lives to track down the Weboy family, and save their grandson from the domestic violence of his new step-father. But the mob-like mentality of the Weboy's will make their journey impossible without bloodshed.

The supporting cast includes Lesley Manville, Jeffrey Donovan, and Booboo Stewart.
Where you watch

Where you watch Email alert

Yes, it is available and reported below. Use the alert button to get notified when higher quality versions are available.

Download and stream reports

Can I download or stream Let Him Go? Yes. Reports of pirated torrents and streams are available below.
When will Let Him Go be available on digital platforms like iTunes or Amazon? It's set for a November 25, 2020 release. This likely includes iTunes and Amazon unless it is an exclusive Netflix, or similar, release. Physical versions on Blu-Ray or DVD will likely follow.

November 24, 2020
Let.Him.Go.2020.1080p.WEBRip.DD5.1.x264-CM
Video and audio quality: 5/5 | Source: Official web stream

Submitted by: Stas | Trust Rank level: Standard member
Format: Official stream | Site: RARBG
Video ID : 1 Format : AVC Format/Info : Advanced Video Codec Format profile : High@L4 Format settings : CABAC / 2 Ref Frames Format settings, CABAC : Yes Format settings, Reference frames : 2 frames Codec ID : V_MPEG4/ISO/AVC Duration : 1 h 53 min Bit rate : 4 313 kb/s Width : 1 920 pixels Height : 1 080 pixels Display aspect ratio : 16:9 Frame rate mode : Constant Frame rate : 23.976 (24000/1001) FPS Color space : YUV Chroma subsampling : 4:2:0 Bit depth : 8 bits Scan type : Progressive Bits/(Pixel*Frame) : 0.087 Stream size : 3.43 GiB (92%) Writing library : x264 core 155 r2901 7d0ff22 Language : English Default : Yes Forced : No Color range : Limited Color primaries : BT.709 Transfer characteristics : BT.709 Matrix coefficients : BT.709 Audio ID : 2 Format : AC-3 Format/Info : Audio Coding 3 Commercial name : Dolby Digital Codec ID : A_AC3 Duration : 1 h 53 min Bit rate mode : Constant Bit rate : 384 kb/s Channel(s) : 6 channels Channel layout : L R C LFE Ls Rs Sampling rate : 48.0 kHz Frame rate : 31.250 FPS (1536 SPF) Compression mode : Lossy Stream size : 313 MiB (8%) Language : English Service kind : Complete Main Default : Yes Forced : No Text ID : 3 Format : UTF-8 Codec ID : S_TEXT/UTF8 Codec ID/Info : UTF-8 Plain Text Duration : 1 h 45 min Bit rate : 41 b/s Count of elements : 1110 Stream size : 32.4 KiB (0%) Language : English Default : Yes Forced : No

Videos Add media

LET HIM GO - Official Trailer [HD] - In Theaters November
LET HIM GO - Official Trailer [HD] - In Theaters N...