Legacy of Lies

Legacy of Lies

Hot
Mr. MeeseeksMr. Meeseeks   May 21, 2020  
Add to list
Legacy of Lies

Movie info

Title
Confirmed and upcoming movie titles only! Search before adding to avoid dupes.
Legacy of Lies
Year
The year the movie is set to be released.
2020
Director
Adrian Bol
Genre
Pick one or multiple movie genres.
Digital release
Official digital release date on services such as iTunes, Amazon, Netflix. It's the first known release date, without any country restriction. So if it's out on iTunes Russia first, this would be the digital release date.
July 28, 2020
Description
Starring Scott Adkins, Anna Butkevych, Honor Kneafsey, Andrea Vasiliou, Martin McDougall, Matt Mitler, Marco Robinson, Victor Solé, and Yuliia Sobol.
Where you watch

Where you watch Email alert

Yes, it is available and reported below. Use the alert button to get notified when higher quality versions are available.

Download and stream reports

Is there a Legacy of Lies torrent? Yes. Reports are available below.
When will Legacy of Lies be available on VOD? It's set for a July 28, 2020 release.

December 03, 2020
Legacy.Of.Lies.2020.1080p.BluRay.x264-GETiT
Video and audio quality: 5/5 | Source: BluRay

Submitted by: Mr. Meeseeks | Trust Rank level: Supreme Member
Format: Torrent | Site: RARBG
Video ID : 1 Format : AVC Format/Info : Advanced Video Codec Format profile : High@L4.1 Format settings : CABAC / 5 Ref Frames Format settings, CABAC : Yes Format settings, Reference frames : 5 frames Codec ID : V_MPEG4/ISO/AVC Duration : 1 h 41 min Bit rate : 4 451 kb/s Width : 1 920 pixels Height : 800 pixels Display aspect ratio : 2.40:1 Frame rate mode : Constant Frame rate : 24.000 FPS Color space : YUV Chroma subsampling : 4:2:0 Bit depth : 8 bits Scan type : Progressive Bits/(Pixel*Frame) : 0.121 Stream size : 3.16 GiB (53%) Writing library : x264 core 161 r3018 db0d417 Encoding settings : cabac=1 / ref=5 / deblock=1:-3:-3 / analyse=0x3:0x133 / me=umh / subme=9 / psy=1 / psy_rd=1.00:0.00 / mixed_ref=1 / me_range=16 / chroma_me=1 / trellis=2 / 8x8dct=1 / cqm=0 / deadzone=21,11 / fast_pskip=1 / chroma_qp_offset=-2 / threads=24 / lookahead_threads=2 / sliced_threads=0 / nr=0 / decimate=1 / interlaced=0 / bluray_compat=0 / constrained_intra=0 / bframes=3 / b_pyramid=2 / b_adapt=2 / b_bias=0 / direct=3 / weightb=1 / open_gop=0 / weightp=2 / keyint=250 / keyint_min=24 / scenecut=40 / intra_refresh=0 / rc_lookahead=60 / rc=crf / mbtree=1 / crf=17.0 / qcomp=0.60 / qpmin=0 / qpmax=69 / qpstep=4 / ip_ratio=1.40 / aq=3:0.80 Language : English Default : Yes Forced : No Color range : Limited Matrix coefficients : BT.709 Audio ID : 2 Format : DTS XLL Format/Info : Digital Theater Systems Commercial name : DTS-HD Master Audio Codec ID : A_DTS Duration : 1 h 41 min Bit rate mode : Variable Bit rate : 3 952 kb/s Channel(s) : 6 channels Channel layout : C L R Ls Rs LFE Sampling rate : 48.0 kHz Frame rate : 93.750 FPS (512 SPF) Bit depth : 24 bits Compression mode : Lossless Stream size : 2.81 GiB (47%) Default : Yes Forced : No Text #1 ID : 3 Format : UTF-8 Codec ID : S_TEXT/UTF8 Codec ID/Info : UTF-8 Plain Text Duration : 1 h 39 min Bit rate : 1 b/s Count of elements : 53 Stream size : 1.17 KiB (0%) Title : forced Language : English Default : Yes Forced : No Text #2 ID : 4 Format : PGS Muxing mode : zlib Codec ID : S_HDMV/PGS Codec ID/Info : Picture based subtitle format used on BDs/HD-DVDs Duration : 1 h 41 min Bit rate : 9 508 b/s Count of elements : 2040 Stream size : 6.87 MiB (0%) Title : sub Language : German Default : No Forced : No
July 28, 2020
Legacy.of.Lies.2020.1080p.AMZN.WEBRip.DDP5.1.x264-NTG
Video and audio quality: 5/5 | Source: Official web stream

Submitted by: Mr. Meeseeks | Trust Rank level: Supreme Member
Format: Torrent | Site: RARBG
Video ID : 1 Format : AVC Format/Info : Advanced Video Codec Format profile : High@L4 Format settings : CABAC / 4 Ref Frames Format settings, CABAC : Yes Format settings, Reference frames : 4 frames Codec ID : V_MPEG4/ISO/AVC Duration : 1 h 41 min Bit rate mode : Constant Bit rate : 5 637 kb/s Nominal bit rate : 10 000 kb/s Width : 1 920 pixels Height : 800 pixels Display aspect ratio : 2.40:1 Frame rate mode : Constant Frame rate : 23.976 (24000/1001) FPS Color space : YUV Chroma subsampling : 4:2:0 Bit depth : 8 bits Scan type : Progressive Bits/(Pixel*Frame) : 0.153 Stream size : 3.99 GiB (90%) Default : Yes Forced : No Color range : Limited Color primaries : BT.709 Transfer characteristics : BT.709 Matrix coefficients : BT.709 Audio ID : 2 Format : E-AC-3 Format/Info : Enhanced AC-3 Commercial name : Dolby Digital Plus Codec ID : A_EAC3 Duration : 1 h 41 min Bit rate mode : Constant Bit rate : 640 kb/s Channel(s) : 6 channels Channel layout : L R C LFE Ls Rs Sampling rate : 48.0 kHz Frame rate : 31.250 FPS (1536 SPF) Compression mode : Lossy Stream size : 464 MiB (10%) Language : English Service kind : Complete Main Default : Yes Forced : No
July 17, 2020
Legacy.of.Lies.2020.DVDRip.AC3.X264-CMRG
Video and audio quality: 5/5 | Source: DVD

Submitted by: Mr. Meeseeks | Trust Rank level: Supreme Member
Format: Torrent | Site: TorrentGalaxy
Container = Matroska (mkv) Duration = 01:41:24.620 Filesize = 1 GiB Overall bitrate = 2 116 kb/s Video Codec info = AVC High@L3 | V_MPEG4/ISO/AVC Resolution = 720x296 Display AR = 2.432 | 2.40:1 Bitrate = 1 700 kb/s Framerate = CFR 23.976 Color space = YUV Chroma subsampling = 4:2:0 Encoder = x264 - core 160 r3000 33f9e14 Audio Codec info = AC-3 | A_AC3 Channels = 6 Bitrate = CBR 448 kb/s Samplerate = 48.0 kHz Language = English

Videos Add media

Legacy Of Lies - Arriving on DVD, Digital, and On Demand July 28
Legacy Of Lies - Arriving on DVD, Digital, and On ...