Leap Of Faith: William Friedkin On The Exorcist

Leap Of Faith: William Friedkin On The Exorcist

Cupio DissolviCupio Dissolvi   November 03, 2020  
Add to list
Leap Of Faith: William Friedkin On The Exorcist

Movie info

Title
Confirmed and upcoming movie titles only! Search before adding to avoid dupes.
Leap Of Faith: William Friedkin On The Exorcist
Year
The year the movie is set to be released.
2020
Genre
Pick one or multiple movie genres.
Digital release
Official digital release date on services such as iTunes, Amazon, Netflix. It's the first known release date, without any country restriction. So if it's out on iTunes Russia first, this would be the digital release date.
November 19, 2020
Description
A feature-length documentary on the making of the horror classic "The Exorcist", premieres on Shudder 19-11-2020
Where you watch

Where you watch Email alert

Yes, it is available and reported below. Use the alert button to get notified when higher quality versions are available.

Download and stream reports

Can I download or stream Leap Of Faith: William Friedkin On The Exorcist? Yes. Reports of pirated torrents and streams are available below.
When will Leap Of Faith: William Friedkin On The Exorcist be available on digital platforms like iTunes or Amazon? It's set for a November 19, 2020 release. This likely includes iTunes and Amazon unless it is an exclusive Netflix, or similar, release. Physical versions on Blu-Ray or DVD will likely follow.

November 19, 2020
Leap.of.Faith.William.Friedkin.on.the.Exorcist.2019.1080p.AMZN.WEBRip.DDP2.0.x264-TEPES
Video and audio quality: 4/5 | Source: Official web stream

Submitted by: Cupio Dissolvi | Trust Rank level: Standard member
Format: Torrent | Site: Rarbg
Video ID : 1 Format : AVC Format/Info : Advanced Video Codec Format profile : High@L4 Format settings : CABAC / 4 Ref Frames Format settings, CABAC : Yes Format settings, Reference frames : 4 frames Codec ID : V_MPEG4/ISO/AVC Duration : 1 h 43 min Bit rate mode : Constant Bit rate : 8 713 kb/s Nominal bit rate : 10 000 kb/s Width : 1 920 pixels Height : 1 080 pixels Display aspect ratio : 16:9 Frame rate mode : Constant Frame rate : 24.000 FPS Color space : YUV Chroma subsampling : 4:2:0 Bit depth : 8 bits Scan type : Progressive Bits/(Pixel*Frame) : 0.175 Stream size : 6.31 GiB (97%) Default : Yes Forced : No Color range : Limited Color primaries : BT.709 Transfer characteristics : BT.709 Matrix coefficients : BT.709 Audio ID : 2 Format : E-AC-3 Format/Info : Enhanced AC-3 Commercial name : Dolby Digital Plus Codec ID : A_EAC3 Duration : 1 h 43 min Bit rate mode : Constant Bit rate : 224 kb/s Channel(s) : 2 channels Channel layout : L R Sampling rate : 48.0 kHz Frame rate : 31.250 FPS (1536 SPF) Compression mode : Lossy Stream size : 166 MiB (3%) Language : English Service kind : Complete Main Default : Yes Forced : No Text #1 ID : 3 Format : UTF-8 Codec ID : S_TEXT/UTF8 Codec ID/Info : UTF-8 Plain Text Duration : 1 h 40 min Bit rate : 81 b/s Count of elements : 1586 Stream size : 59.8 KiB (0%) Language : English Default : No Forced : No Text #2 ID : 4 Format : UTF-8 Codec ID : S_TEXT/UTF8 Codec ID/Info : UTF-8 Plain Text Duration : 1 h 43 min Bit rate : 81 b/s Count of elements : 1692 Stream size : 61.2 KiB (0%) Title : SDH Language : English Default : No Forced : No

Videos Add media

Leap of Faith: William Friedkin on The Exorcist (2019) | Trailer
Leap of Faith: William Friedkin on The Exorcist (2...