Late Night

Late Night

Hot
Mr. MeeseeksMr. Meeseeks   March 10, 2019  
Add to list
Late Night

Movie info

TITLE
Confirmed and upcoming movie titles only! Search before adding to avoid dupes.
Late Night
YEAR
The year the movie is set to be released.
2019
GENRE
Pick one or multiple movie genres.
CINEMA
First cinema release date in any country.
June 07, 2019
DIGITAL RELEASE
Official digital release date on services such as iTunes, Amazon, Netflix. It's the first known release date, without any country restriction. So if it's out on iTunes Russia first, this would be the digital release date.
September 06, 2019
DESCRIPTION
Starring Emma Thompson, Mindy Kaling, Hugh Dancy, Reid Scott, Denis O'Hare, Paul Walter Hauser, John Lithgow, and Amy Ryan.
WHERE YOU WATCH

Where you watch Email alert

The movie is online and reported below, Use the alert button to get notified when higher quality versions are available.

Reports

Is Late Night available online? Yes. Reports of pirated torrents and streams are available below.
When will Late Night be available on digital platforms like iTunes or Amazon? It's set for a September 06, 2019 release. This likely includes iTunes and Amazon unless it is an exclusive Netflix, or similar, release. Physical versions on Blu-Ray or DVD will likely follow.

September 06, 2019
Late.Night.2019.1080p.AMZN.WEBRip.DDP5.1.x264-monkee
Video and audio quality: 5/5 | Source: Official web stream

Submitted by: Mr. Meeseeks | Trust Rank level: Supreme Member
Format: Torrent | Site: RARBG
Video ID : 1 Format : AVC Format/Info : Advanced Video Codec Format profile : [email protected] Format settings : CABAC / 4 Ref Frames Format settings, CABAC : Yes Format settings, Reference frames : 4 frames Codec ID : V_MPEG4/ISO/AVC Duration : 1 h 42 min Bit rate mode : Constant Bit rate : 9 383 kb/s Nominal bit rate : 10 000 kb/s Width : 1 920 pixels Height : 1 040 pixels Display aspect ratio : 1.85:1 Frame rate mode : Constant Frame rate : 23.976 (24000/1001) FPS Color space : YUV Chroma subsampling : 4:2:0 Bit depth : 8 bits Scan type : Progressive Bits/(Pixel*Frame) : 0.196 Stream size : 6.70 GiB (94%) Default : Yes Forced : No Color range : Limited Color primaries : BT.709 Transfer characteristics : BT.709 Matrix coefficients : BT.709 Audio ID : 2 Format : E-AC-3 Format/Info : Enhanced AC-3 Commercial name : Dolby Digital Plus Codec ID : A_EAC3 Duration : 1 h 42 min Bit rate mode : Constant Bit rate : 640 kb/s Channel(s) : 6 channels Channel layout : L R C LFE Ls Rs Sampling rate : 48.0 kHz Frame rate : 31.250 FPS (1536 SPF) Compression mode : Lossy Stream size : 468 MiB (6%) Language : English Service kind : Complete Main Default : Yes Forced : No Text #1 ID : 3 Format : UTF-8 Codec ID : S_TEXT/UTF8 Codec ID/Info : UTF-8 Plain Text Duration : 1 h 41 min Bit rate : 110 b/s Count of elements : 2441 Stream size : 82.2 KiB (0%) Language : English Default : No Forced : No Text #2 ID : 4 Format : UTF-8 Codec ID : S_TEXT/UTF8 Codec ID/Info : UTF-8 Plain Text Duration : 1 h 41 min Bit rate : 110 b/s Count of elements : 2464 Stream size : 82.4 KiB (0%) Title : SDH Language : English Default : No Forced : No

Videos Add media

Late Night - Official Trailer #2 | Amazon Studios
Late Night - Official Trailer #2 | Amazon Studios
Late Night - Official Trailer | Amazon Studios
Late Night - Official Trailer | Amazon Studios