Knock Down The House

Knock Down The House

Hot
Mr. MeeseeksMr. Meeseeks   March 31, 2019  
Add to list
Knock Down The House

Movie info

TITLE
Confirmed and upcoming movie titles only! Search before adding to avoid dupes.
Knock Down The House
YEAR
The year the movie is set to be released.
2019
DIRECTOR
GENRE
Pick one or multiple movie genres.
CINEMA
First cinema release date in any country.
May 01, 2019
DESCRIPTION
A documentary about Alexandria Ocasio-Cortez, and the 2018 United States Congressional election.
WHERE YOU WATCH

Where you watch Email alert

The movie is online and reported below, Use the alert button to get notified when higher quality versions are available.

Reports

Is Knock Down The House available online? Yes. Reports of pirated torrents and streams are available below.
When will Knock Down The House be available on digital platforms like iTunes or Amazon? As of now, there's no release data announced. This includes iTunes, Amazon, Blu-Ray and DVD.

May 02, 2019
Knock.Down.the.House.2019.720p.WEBRip.x264-STRiFE
Video and audio quality: 5/5 | Source: Official web stream

Submitted by: Mr. Meeseeks | Trust Rank level: Supreme Member
Format: Torrent | Site: RARBG
Video ID : 1 Format : AVC Format/Info : Advanced Video Codec Format profile : [email protected] Format settings : CABAC / 5 Ref Frames Format settings, CABAC : Yes Format settings, ReFrames : 5 frames Codec ID : V_MPEG4/ISO/AVC Duration : 1 h 27 min Bit rate : 3 191 kb/s Width : 1 280 pixels Height : 676 pixels Display aspect ratio : 1.896 Original display aspect ratio : 1.897 Frame rate mode : Constant Frame rate : 23.976 (24000/1001) FPS Color space : YUV Chroma subsampling : 4:2:0 Bit depth : 8 bits Scan type : Progressive Bits/(Pixel*Frame) : 0.154 Stream size : 1.96 GiB (83%) Writing library : x264 core 157 r2935 545de2f Encoding settings : cabac=1 / ref=5 / deblock=1:-3:-3 / analyse=0x3:0x113 / me=hex / subme=8 / psy=1 / psy_rd=1.00:0.15 / mixed_ref=1 / me_range=16 / chroma_me=1 / trellis=2 / 8x8dct=1 / cqm=0 / deadzone=21,11 / fast_pskip=0 / chroma_qp_offset=-2 / threads=21 / lookahead_threads=3 / sliced_threads=0 / nr=0 / decimate=1 / interlaced=0 / bluray_compat=0 / constrained_intra=0 / bframes=3 / b_pyramid=2 / b_adapt=1 / b_bias=0 / direct=3 / weightb=1 / open_gop=0 / weightp=2 / keyint=250 / keyint_min=23 / scenecut=40 / intra_refresh=0 / rc_lookahead=50 / rc=crf / mbtree=1 / crf=18.0 / qcomp=0.60 / qpmin=0 / qpmax=69 / qpstep=4 / ip_ratio=1.40 / aq=3:0.80 Language : English Default : Yes Forced : No Color range : Limited Matrix coefficients : BT.709 Audio ID : 2 Format : E-AC-3 Format/Info : Enhanced AC-3 Commercial name : Dolby Digital Plus Codec ID : A_EAC3 Duration : 1 h 27 min Bit rate mode : Constant Bit rate : 640 kb/s Channel(s) : 6 channels Channel layout : L R C LFE Ls Rs Sampling rate : 48.0 kHz Frame rate : 31.250 FPS (1536 SPF) Compression mode : Lossy Stream size : 403 MiB (17%) Language : English Service kind : Complete Main Default : Yes Forced : No Text #1 ID : 3 Format : UTF-8 Codec ID : S_TEXT/UTF8 Codec ID/Info : UTF-8 Plain Text Duration : 1 h 16 min Bit rate : 1 b/s Count of elements : 22 Stream size : 823 Bytes (0%) Title : Forced Language : English Default : Yes Forced : Yes Text #2 ID : 4 Format : UTF-8 Codec ID : S_TEXT/UTF8 Codec ID/Info : UTF-8 Plain Text Duration : 1 h 26 min Bit rate : 91 b/s Count of elements : 1493 Stream size : 57.6 KiB (0%) Language : English Default : No Forced : No Text #3 ID : 5 Format : UTF-8 Codec ID : S_TEXT/UTF8 Codec ID/Info : UTF-8 Plain Text Duration : 1 h 26 min Bit rate : 69 b/s Count of elements : 942 Stream size : 44.2 KiB (0%) Language : Finnish Default : No Forced : No Text #4 ID : 6 Format : UTF-8 Codec ID : S_TEXT/UTF8 Codec ID/Info : UTF-8 Plain Text Duration : 1 h 26 min Bit rate : 81 b/s Count of elements : 1396 Stream size : 51.7 KiB (0%) Language : German Default : No Forced : No Text #5 ID : 7 Format : UTF-8 Codec ID : S_TEXT/UTF8 Codec ID/Info : UTF-8 Plain Text Duration : 1 h 26 min Bit rate : 78 b/s Count of elements : 1434 Stream size : 49.8 KiB (0%) Language : Norwegian Bokmal Default : No Forced : No Text #6 ID : 8 Format : UTF-8 Codec ID : S_TEXT/UTF8 Codec ID/Info : UTF-8 Plain Text Duration : 1 h 26 min Bit rate : 78 b/s Count of elements : 1389 Stream size : 49.9 KiB (0%) Language : Swedish Default : No Forced : No

Videos Add media

Knock Down The House | Official Trailer | Netflix
Knock Down The House | Official Trailer | Netflix