Just Mercy

Just Mercy

Hot
DaxDax   August 31, 2019  
Add to list
Just Mercy

Movie info

Title
Confirmed and upcoming movie titles only! Search before adding to avoid dupes.
Just Mercy
Year
The year the movie is set to be released.
2019
Genre
Pick one or multiple movie genres.
Cinema release
First cinema release date in any country.
December 25, 2019
Digital release
Official digital release date on services such as iTunes, Amazon, Netflix. It's the first known release date, without any country restriction. So if it's out on iTunes Russia first, this would be the digital release date.
March 10, 2020
Description
This is a biopic about the civil rights attorney Brian Stephenson based on his book and starring Brie Larson, Michael B. Jordan, and Jamie Foxx. It's premiering at the Toronto International Film Festival.
Where you watch

Where you watch Email alert

Yes, it is available and reported below. Use the alert button to get notified when higher quality versions are available.

Download and stream reports

Is there a Just Mercy torrent? Yes. Reports are available below.
When will Just Mercy be available on VOD? It's set for a March 10, 2020 release.

April 13, 2020
Just.Mercy.2019.1080p.BluRay.REMUX.AVC.DTS-HD.MA.TrueHD.7.1.Atmos-FGT
Video and audio quality: 5/5 | Source: BluRay

Submitted by: Mr. Meeseeks | Trust Rank level: Supreme Member
Format: Torrent | Site: RARBG
Video ID : 1 Format : AVC Format/Info : Advanced Video Codec Format profile : High@L4.1 Format settings : CABAC / 4 Ref Frames Format settings, CABAC : Yes Format settings, Reference frames : 4 frames Codec ID : V_MPEG4/ISO/AVC Duration : 2 h 17 min Bit rate mode : Variable Bit rate : 27.3 Mb/s Maximum bit rate : 30.0 Mb/s Width : 1 920 pixels Height : 1 080 pixels Display aspect ratio : 16:9 Frame rate mode : Constant Frame rate : 23.976 (24000/1001) FPS Color space : YUV Chroma subsampling : 4:2:0 Bit depth : 8 bits Scan type : Progressive Bits/(Pixel*Frame) : 0.550 Stream size : 26.2 GiB (72%) Title : Just.Mercy.2019.1080p.BluRay.REMUX.AVC.DTS-HD.MA.TrueHD.7.1.Atmos-FGT Language : English Default : No Forced : No Audio #1 ID : 2 Format : MLP FBA 16-ch Format/Info : Meridian Lossless Packing FBA with 16-channel presentation Commercial name : Dolby TrueHD with Dolby Atmos Codec ID : A_TRUEHD Duration : 2 h 17 min Bit rate mode : Variable Bit rate : 3 287 kb/s Maximum bit rate : 5 004 kb/s Channel(s) : 8 channels Channel layout : L R C LFE Ls Rs Lb Rb Sampling rate : 48.0 kHz Frame rate : 1 200.000 FPS (40 SPF) Compression mode : Lossless Stream size : 3.15 GiB (9%) Title : Just.Mercy.2019.1080p.BluRay.REMUX.AVC.DTS-HD.MA.TrueHD.7.1.Atmos-FGT Language : English Default : Yes Forced : No Number of dynamic objects : 15 Bed channel count : 1 channel Bed channel configuration : LFE Audio #2 ID : 3 Format : DTS XLL Format/Info : Digital Theater Systems Commercial name : DTS-HD Master Audio Codec ID : A_DTS Duration : 2 h 17 min Bit rate mode : Variable Bit rate : 4 202 kb/s Channel(s) : 8 channels Channel layout : C L R LFE Lb Rb Lss Rss Sampling rate : 48.0 kHz Frame rate : 93.750 FPS (512 SPF) Bit depth : 24 bits Compression mode : Lossless Stream size : 4.02 GiB (11%) Title : Just.Mercy.2019.1080p.BluRay.REMUX.AVC.DTS-HD.MA.TrueHD.7.1.Atmos-FGT Language : English Default : No Forced : No Audio #3 ID : 4 Format : AC-3 Format/Info : Audio Coding 3 Commercial name : Dolby Digital Codec ID : A_AC3 Duration : 2 h 17 min Bit rate mode : Constant Bit rate : 640 kb/s Channel(s) : 6 channels Channel layout : L R C LFE Ls Rs Sampling rate : 48.0 kHz Frame rate : 31.250 FPS (1536 SPF) Bit depth : 16 bits Compression mode : Lossy Stream size : 627 MiB (2%) Title : Just.Mercy.2019.1080p.BluRay.REMUX.AVC.DTS-HD.MA.TrueHD.7.1.Atmos-FGT Language : English Service kind : Complete Main Default : No Forced : No Audio #4 ID : 5 Format : AC-3 Format/Info : Audio Coding 3 Commercial name : Dolby Digital Codec ID : A_AC3 Duration : 2 h 17 min Bit rate mode : Constant Bit rate : 448 kb/s Channel(s) : 6 channels Channel layout : L R C LFE Ls Rs Sampling rate : 48.0 kHz Frame rate : 31.250 FPS (1536 SPF) Bit depth : 16 bits Compression mode : Lossy Stream size : 439 MiB (1%) Title : Just.Mercy.2019.1080p.BluRay.REMUX.AVC.DTS-HD.MA.TrueHD.7.1.Atmos-FGT Language : English Service kind : Complete Main Default : No Forced : No Audio #5 ID : 6 Format : AC-3 Format/Info : Audio Coding 3 Commercial name : Dolby Digital Codec ID : A_AC3 Duration : 2 h 17 min Bit rate mode : Constant Bit rate : 384 kb/s Channel(s) : 6 channels Channel layout : L R C LFE Ls Rs Sampling rate : 48.0 kHz Frame rate : 31.250 FPS (1536 SPF) Bit depth : 16 bits Compression mode : Lossy Stream size : 376 MiB (1%) Title : Just.Mercy.2019.1080p.BluRay.REMUX.AVC.DTS-HD.MA.TrueHD.7.1.Atmos-FGT Language : English Service kind : Complete Main Default : No Forced : No Audio #6 ID : 7 Format : AC-3 Format/Info : Audio Coding 3 Commercial name : Dolby Digital Codec ID : A_AC3 Duration : 2 h 17 min Bit rate mode : Constant Bit rate : 448 kb/s Channel(s) : 6 channels Channel layout : L R C LFE Ls Rs Sampling rate : 48.0 kHz Frame rate : 31.250 FPS (1536 SPF) Bit depth : 16 bits Compression mode : Lossy Stream size : 439 MiB (1%) Title : Just.Mercy.2019.1080p.BluRay.REMUX.AVC.DTS-HD.MA.TrueHD.7.1.Atmos-FGT Language : French Service kind : Complete Main Default : No Forced : No Audio #7 ID : 8 Format : AC-3 Format/Info : Audio Coding 3 Commercial name : Dolby Digital Codec ID : A_AC3 Duration : 2 h 17 min Bit rate mode : Constant Bit rate : 448 kb/s Channel(s) : 6 channels Channel layout : L R C LFE Ls Rs Sampling rate : 48.0 kHz Frame rate : 31.250 FPS (1536 SPF) Bit depth : 16 bits Compression mode : Lossy Stream size : 439 MiB (1%) Title : Just.Mercy.2019.1080p.BluRay.REMUX.AVC.DTS-HD.MA.TrueHD.7.1.Atmos-FGT Language : Spanish Service kind : Complete Main Default : No Forced : No Audio #8 ID : 9 Format : AC-3 Format/Info : Audio Coding 3 Commercial name : Dolby Digital Codec ID : A_AC3 Duration : 2 h 17 min Bit rate mode : Constant Bit rate : 448 kb/s Channel(s) : 6 channels Channel layout : L R C LFE Ls Rs Sampling rate : 48.0 kHz Frame rate : 31.250 FPS (1536 SPF) Bit depth : 16 bits Compression mode : Lossy Stream size : 439 MiB (1%) Title : Just.Mercy.2019.1080p.BluRay.REMUX.AVC.DTS-HD.MA.TrueHD.7.1.Atmos-FGT Language : Portuguese Service kind : Complete Main Default : No Forced : No Text #1 ID : 10 Format : UTF-8 Codec ID : S_TEXT/UTF8 Codec ID/Info : UTF-8 Plain Text Duration : 2 h 11 min Bit rate : 65 b/s Count of elements : 1746 Stream size : 63.3 KiB (0%) Title : English-SRT Language : English Default : Yes Forced : No Text #2 ID : 11 Format : PGS Muxing mode : zlib Codec ID : S_HDMV/PGS Codec ID/Info : Picture based subtitle format used on BDs/HD-DVDs Duration : 2 h 12 min Bit rate : 42.8 kb/s Count of elements : 3794 Stream size : 40.5 MiB (0%) Title : English-PGS Language : English Default : No Forced : No Text #3 ID : 12 Format : PGS Muxing mode : zlib Codec ID : S_HDMV/PGS Codec ID/Info : Picture based subtitle format used on BDs/HD-DVDs Duration : 2 h 16 min Bit rate : 31.9 kb/s Count of elements : 3212 Stream size : 31.1 MiB (0%) Title : French-PGS Language : French Default : No Forced : No Text #4 ID : 13 Format : PGS Muxing mode : zlib Codec ID : S_HDMV/PGS Codec ID/Info : Picture based subtitle format used on BDs/HD-DVDs Duration : 2 h 16 min Bit rate : 37.0 kb/s Count of elements : 3348 Stream size : 36.1 MiB (0%) Title : Portuguese-PGS Language : Portuguese Default : No Forced : No Text #5 ID : 14 Format : PGS Muxing mode : zlib Codec ID : S_HDMV/PGS Codec ID/Info : Picture based subtitle format used on BDs/HD-DVDs Duration : 2 h 16 min Bit rate : 38.2 kb/s Count of elements : 3362 Stream size : 37.2 MiB (0%) Title : Spanish-PGS Language : Spanish Default : No Forced : No Text #6 ID : 15 Format : PGS Muxing mode : zlib Codec ID : S_HDMV/PGS Codec ID/Info : Picture based subtitle format used on BDs/HD-DVDs Duration : 2 h 11 min Bit rate : 2 246 b/s Count of elements : 186 Stream size : 2.12 MiB (0%) Title : French-FORCED-PGS Language : French Default : No Forced : No Text #7 ID : 16 Format : PGS Muxing mode : zlib Codec ID : S_HDMV/PGS Codec ID/Info : Picture based subtitle format used on BDs/HD-DVDs Duration : 2 h 6 min Bit rate : 1 255 b/s Count of elements : 88 Stream size : 1.13 MiB (0%) Title : Spanish-FORCED-PGS Language : Spanish Default : No Forced : No Text #8 ID : 17 Format : PGS Muxing mode : zlib Codec ID : S_HDMV/PGS Codec ID/Info : Picture based subtitle format used on BDs/HD-DVDs Duration : 2 h 8 min Bit rate : 2 401 b/s Count of elements : 190 Stream size : 2.20 MiB (0%) Title : Portuguese-FORCED-PGS Language : Portuguese Default : No Forced : No
March 17, 2020
Just.Mercy.2020.1080p.WEB-DL.H264.AC3-EVO
Video and audio quality: 5/5 | Source: Official web stream

Submitted by: Mavoy | Trust Rank level: Hero member
Format: Torrent | Site: 1337x
[Video Bitrate]:.............: 5535kb/s [Duration]:.............: 2 h 17 min [Video Codec]:.............: AVC [Resolution]:.............: 1920x1036 px [Aspect Ratio]:.............: 1.85:1 [Audio Codec]:.............: AC-3 [Audio Bitrate]:.............: 384kb/s [Audio Channels]:.............: 5.1ch [Audio Language]:.............: English
January 21, 2020
Just.Mercy.2019.720P.DVDScr.X264.AC3.HQ.Hive-CM8
Video and audio quality: 4/5 | Source: Screener

Submitted by: Ivana 🌿 | Trust Rank level: Supreme Member
Format: Torrent | Site: TorrentGalaxy
Duration: 2hs 17min Resolution: 1060x568 Language: English
December 27, 2019
Just Mercy 2019 720p HDCAM-GETB8
Video and audio quality: 1/5 | Source: Camera

Submitted by: Ivana 🌿 | Trust Rank level: Supreme Member
Format: Torrent | Site: TorrentGalaxy
Duration: 2hs 11min Resolution: 1280x640 Language: English - Please be advised this upload has ads cut or watermarked into the video.

Videos Add media

JUST MERCY – Main Trailer
JUST MERCY – Main Trailer