Jurassic Punk

Jurassic Punk

Mr. MeeseeksMr. Meeseeks   November 27, 2022  
Add to list
Jurassic Punk

Movie info

Title
Confirmed and upcoming movie titles only! Search before adding to avoid dupes.
Jurassic Punk
Year
The year the movie is set to be released.
2022
Director
Scott Leberecht
Genre
Pick one or multiple movie genres.
Digital release
Official digital release date on services such as iTunes, Amazon, Netflix. It's the first known release date, without any country restriction. So if it's out on iTunes Russia first, this would be the digital release date.
December 16, 2022
Description
A documentary film about computer animator Steve "Spaz" Williams, who worked on the film "Jurassic Park".
Where you watch

Where you watch Email alert

Yes, it is available and reported below. Use the alert button to get notified when higher quality versions are available.

Download and stream reports

Is there a Jurassic Punk torrent? Yes. Reports are available below.
When will Jurassic Punk be available on VOD? It's set for a December 16, 2022 release.

December 30, 2022
Jurassic.Punk.2022.1080p.AMZN.WEBRip.DDP5.1.x264-SMURF
Video and audio quality: 5/5 | Source: Official web stream

Submitted by: Mr. Meeseeks | Trust Rank level: Supreme Member
Format: Torrent | Site: RARBG
Video ID : 1 Format : AVC Format/Info : Advanced Video Codec Format profile : High@L4 Format settings : CABAC / 4 Ref Frames Format settings, CABAC : Yes Format settings, Reference frames : 4 frames Codec ID : V_MPEG4/ISO/AVC Duration : 1 h 20 min Bit rate mode : Constant Bit rate : 8 464 kb/s Nominal bit rate : 10 000 kb/s Width : 1 920 pixels Height : 1 080 pixels Display aspect ratio : 16:9 Frame rate mode : Constant Frame rate : 23.976 (24000/1001) FPS Color space : YUV Chroma subsampling : 4:2:0 Bit depth : 8 bits Scan type : Progressive Bits/(Pixel*Frame) : 0.170 Stream size : 4.78 GiB (93%) Language : English (US) Default : Yes Forced : No Color range : Limited Color primaries : BT.709 Transfer characteristics : BT.709 Matrix coefficients : BT.709 Audio ID : 2 Format : E-AC-3 Format/Info : Enhanced AC-3 Commercial name : Dolby Digital Plus Codec ID : A_EAC3 Duration : 1 h 20 min Bit rate mode : Constant Bit rate : 640 kb/s Channel(s) : 6 channels Channel layout : L R C LFE Ls Rs Sampling rate : 48.0 kHz Frame rate : 31.250 FPS (1536 SPF) Compression mode : Lossy Stream size : 370 MiB (7%) Language : English Service kind : Complete Main Default : Yes Forced : No

Videos Add media

Jurassic Punk trailer (2022)
Jurassic Punk trailer (2022)