Jumanji: The Next Level

Jumanji: The Next Level

Hot
MojibMojib   February 11, 2018  
Add to list
Jumanji: The Next Level

Movie info

Title
Confirmed and upcoming movie titles only! Search before adding to avoid dupes.
Jumanji: The Next Level
Year
The year the movie is set to be released.
2019
Director
Genre
Pick one or multiple movie genres.
Cinema release
First cinema release date in any country.
December 13, 2019
Description
The reboot of Jumanji proved to be a successful move from Sony pictures, even challenging Star Wars at the box office. And while download numbers have yet to be revealed (only a CAM/TS torrent is available at the time of writing), it's likely to break all sorts of records.

So it's no wonder we're getting a sequel and according to Deadline, screenwriters Scott Rosenberg and Jeff Pinkner returns, alongside Jumanji: Welcome to the Jungle's director. And we should expect Dwayne "The Rock" Johnson along with Kevin Hart, Jack Black and Karen Gillan to return as well.

While the movie might not technically be called Jumanji 3 (Update: It's now titled Jumanji The Next Level), and might not even be considered the third movie in the franchise, I'm sticking to this title before we get a proper update.
Where you watch

Where you watch Email alert

The movie is online and reported below, Use the alert button to get notified when higher quality versions are available.

Download and stream reports

Can I download or stream Jumanji: The Next Level? Yes. Reports of pirated torrents and streams are available below.
When will Jumanji: The Next Level be available on digital platforms like iTunes, Amazon or Apple+? As of now, there's no release date announced. This includes iTunes, Amazon, Blu-Ray and DVD.

March 04, 2020
Jumanji.The.Next.Level.2019.1080p.BluRay.x264.DTS-CHD
Video and audio quality: 5/5 | Source: BluRay

Submitted by: armiestice | Trust Rank level: Senior Member
Format: Torrent | Site: RARBG
Video ID : 1 Format : AVC Format/Info : Advanced Video Codec Format profile : High@L4.1 Format settings : CABAC / 4 Ref Frames Format settings, CABAC : Yes Format settings, Reference frames : 4 frames Codec ID : V_MPEG4/ISO/AVC Duration : 2 h 3 min Bit rate : 10.6 Mb/s Width : 1 920 pixels Height : 804 pixels Display aspect ratio : 2.40:1 Frame rate mode : Constant Frame rate : 23.976 (24000/1001) FPS Color space : YUV Chroma subsampling : 4:2:0 Bit depth : 8 bits Scan type : Progressive Bits/(Pixel*Frame) : 0.288 Stream size : 9.16 GiB (88%) Writing library : x264 core 157 r2867+150 7e91e0e t_mod_Custom_2 [8-bit@all X86_64] Encoding settings : cabac=1 / ref=4 / deblock=1:-3:-3 / analyse=0x3:0x133 / me=umh / subme=11 / psy=1 / fade_compensate=0.00 / psy_rd=0.90:0.10 / mixed_ref=1 / me_range=64 / chroma_me=1 / trellis=2 / 8x8dct=1 / cqm=0 / deadzone=21,11 / fast_pskip=0 / chroma_qp_offset=-4 / threads=25 / lookahead_threads=4 / sliced_threads=0 / nr=0 / decimate=1 / interlaced=0 / bluray_compat=0 / constrained_intra=0 / fgo=0 / bframes=8 / b_pyramid=2 / b_adapt=2 / b_bias=0 / direct=3 / weightb=1 / open_gop=0 / weightp=2 / keyint=250 / keyint_min=23 / scenecut=40 / intra_refresh=0 / rc_lookahead=60 / rc=crf / mbtree=0 / crf=18.0000 / qcomp=0.70 / qpmin=0:0:0 / qpmax=69:69:69 / qpstep=4 / vbv_maxrate=35000 / vbv_bufsize=35000 / crf_max=0.0 / nal_hrd=none / filler=0 / ip_ratio=1.40 / pb_ratio=1.30 / aq=3:1.00 / aq-sensitivity=10.00 / aq-factor=1.00:1.00:1.00 / aq2=0 / aq3=0 Language : English Default : Yes Forced : No Audio ID : 2 Format : DTS Format/Info : Digital Theater Systems Codec ID : A_DTS Duration : 2 h 3 min Bit rate mode : Constant Bit rate : 1 509 kb/s Channel(s) : 6 channels Channel layout : C L R Ls Rs LFE Sampling rate : 48.0 kHz Frame rate : 93.750 FPS (512 SPF) Bit depth : 24 bits Compression mode : Lossy Stream size : 1.30 GiB (12%) Language : English Default : Yes Forced : No
February 26, 2020
Jumanji.The.Next.Level.2019.1080p.WEB-DL.DD5.1.x264-CMRG
Video and audio quality: 5/5 | Source: Official web stream

Submitted by: Mavoy | Trust Rank level: Hero member
Format: Torrent | Site: 1337x
[Video Bitrate]:.............: 5895kb/s [Duration]:.............: 2 h 3 min [Video Codec]:.............: AVC [Resolution]:.............: 1920x1080 px [Aspect Ratio]:.............: 16:9 [Audio Codec]:.............: AC-3 [Audio Bitrate]:.............: 384kb/s [Audio Channels]:.............: 5.1ch [Audio Language]:.............: English
February 13, 2020
Jumanji.The.Next.Level.2019.1080p.KORSUB.HDRip.x264.AAC2.0-STUTTERSHIT
Video and audio quality: 4/5 | Source: Foreign web stream

Submitted by: armiestice | Trust Rank level: Senior Member
Format: Torrent | Site: RARBG
VIDEO Duration : 2 h 3 min Bit rate : 6 750 kb/s Width : 1 920 pixels Height : 804 pixels Display aspect ratio : 2.40:1 Frame rate mode : Constant Frame rate : 29.970 (30000/1001) FPS AUDIO Codec ID : A_AAC-2 Duration : 2 h 3 min Bit rate : 256 kb/s Channel(s) : 2 channels Channel layout : L R Sampling rate : 48.0 kHz Frame rate : 46.875 FPS (1024 SPF) Compression mode : Lossy
December 10, 2019
Jumanji.The.Next.Level.2019.V2.720p.HDCAM.900MB.getb8.x264-BONSAI[TGx]
Video and audio quality: 1/5 | Source: Camera

Submitted by: Costa | Trust Rank level: Hero member
Format: Torrent | Site: torrentgalaxy
CAM Version 2 Please be advised this upload has ads cut or watermarked into the video.
December 07, 2019
Jumanji.The.Next.Level.2019.720p.HDCAM.900MB.getb8.x264-BONSAI[TGx]
Video and audio quality: 1/5 | Source: Camera

Submitted by: Costa | Trust Rank level: Hero member
Format: Torrent | Site: torrentgalaxy
Please be advised this upload has ads cut or watermarked into the video.

Videos Add media

JUMANJI: THE NEXT LEVEL - Official Trailer (HD)
JUMANJI: THE NEXT LEVEL - Official Trailer (HD)