Jojo Rabbit

Jojo Rabbit

Hot
Ivana 🌿Ivana 🌿   August 16, 2018  
Add to list
Jojo Rabbit

Movie info

Title
Confirmed and upcoming movie titles only! Search before adding to avoid dupes.
Jojo Rabbit
Year
The year the movie is set to be released.
2019
Genre
Pick one or multiple movie genres.
Cinema release
First cinema release date in any country.
October 18, 2019
Digital release
Official digital release date on services such as iTunes, Amazon, Netflix. It's the first known release date, without any country restriction. So if it's out on iTunes Russia first, this would be the digital release date.
February 04, 2020
Description
Can you joke about World War 2? If you're the guy who directed What We Do in the Shadows Thor Ragnarok you can. This satire is due out late October in the cinemas, hopefully hitting VOD, iTunes, Amazon and torrent sites before the end of the year.

Features Roman Griffin Davis, Taika Waititi. The movie also stars Thomasin McKensie, Alfie Allen, Stephen Merchant, Rebel Wilson, and Sam Rockwell. Jojo Rabbit is a screenplay adaptation of the novel written by Christine Leunens. The film will be released on October 18, 2019 in cinemas with a digital, VOD release likely in January.
Where you watch

Where you watch Email alert

Yes. The movie is online and reported below, Use the alert button to get notified when higher quality versions are available.

Download and stream reports

Can I download or stream Jojo Rabbit? Yes. Reports of pirated torrents and streams are available below.
When will Jojo Rabbit be available on digital platforms like iTunes or Amazon? It's set for a February 04, 2020 release. This likely includes iTunes and Amazon unless it is an exclusive Netflix, or similar, release. Physical versions on Blu-Ray or DVD will likely follow.

February 06, 2020
Jojo.Rabbit.2019.1080p.BluRay.x264-YOL0W
Video and audio quality: 5/5 | Source: BluRay

Submitted by: armiestice | Trust Rank level: Senior Member
Format: Torrent | Site: RARBG
)/ Video.......: x264 / Resolution..: 1920x1040 1.85:1 // Bitrate.....: 8 603 kb/s / FPS.........: 23.976 // Audio.......: DTS .. Channels....: 5.1 . . Bitrate.....: 1 509 kb/s / __ Language....: English __ Subtitles...: English / Size........: 7840 MB
February 04, 2020
Jojo.Rabbit.2019.1080p.AMZN.WEB-DL.DDP5.1.H.264-NTG
Video and audio quality: 5/5 | Source: Official web stream

Submitted by: Mavoy | Trust Rank level: Hero member
Format: Torrent | Site: 1337x
[Video Bitrate]:.............: 10.0mb/s [Duration]:.............: 1 h 48 min [Video Codec]:.............: AVC [Resolution]:.............: 1920x1040 px [Aspect Ratio]:.............: 1.85:1 [Audio Codec]:.............: E-AC-3 [Audio Bitrate]:.............: 640kb/s [Audio Channels]:.............: 5.1ch [Audio Language]:.............: English
February 04, 2020
Jojo.Rabbit.2019.1080p.WEBRip.DD5.1.x264-CM
Video and audio quality: 5/5 | Source: Official web stream

Submitted by: armiestice | Trust Rank level: Senior Member
Format: Torrent | Site: RARBG
Video ID : 1 Format : AVC Format/Info : Advanced Video Codec Format profile : High@L4 Format settings : CABAC / 2 Ref Frames Format settings, CABAC : Yes Format settings, Reference frames : 2 frames Codec ID : V_MPEG4/ISO/AVC Duration : 1 h 48 min Bit rate : 7 741 kb/s Width : 1 920 pixels Height : 1 080 pixels Display aspect ratio : 16:9 Frame rate mode : Constant Frame rate : 23.976 (24000/1001) FPS Color space : YUV Chroma subsampling : 4:2:0 Bit depth : 8 bits Scan type : Progressive Bits/(Pixel*Frame) : 0.156 Stream size : 5.86 GiB (95%) Writing library : x264 core 155 r2901 7d0ff22 Language : English Default : Yes Forced : No Color range : Limited Color primaries : BT.709 Transfer characteristics : BT.709 Matrix coefficients : BT.709 Audio ID : 2 Format : AC-3 Format/Info : Audio Coding 3 Commercial name : Dolby Digital Codec ID : A_AC3 Duration : 1 h 48 min Bit rate mode : Constant Bit rate : 384 kb/s Channel(s) : 6 channels Channel layout : L R C LFE Ls Rs Sampling rate : 48.0 kHz Frame rate : 31.250 FPS (1536 SPF) Bit depth : 16 bits Compression mode : Lossy Stream size : 298 MiB (5%) Language : English Service kind : Complete Main Default : Yes Forced : No
December 21, 2019
Jojo.Rabbit.2019.DVDScr.XVID.AC3.HQ.Hive-CM8
Video and audio quality: 4/5 | Source: Screener

Submitted by: Ivana 🌿 | Trust Rank level: Legend Member
Format: Torrent | Site: TorrentGalaxy
Duration: 1h 48min Resolution: 720x384 Language: English
October 19, 2019
Jojo.Rabbit.2019.720p.HDCAM.900MB.getb8.x264-BONSAI
Video and audio quality: 1/5 | Source: Camera

Submitted by: Mr. Meeseeks | Trust Rank level: Supreme Member
Format: Torrent | Site: TorrentGalaxy
Container = Matroska (mkv) Duration = 01:44:16.437 Filesize = 897 MiB Overall bitrate = 1 203 kb/s Video Codec info = AVC High@L3.1 | V_MPEG4/ISO/AVC Resolution = 1280x640 Display AR = 1.981 | 1.981 Bitrate = Framerate = VFR Color space = YUV Chroma subsampling = 4:2:0 Encoder = x264 - core 157 Audio Codec info = AAC | A_AAC-2 Channels = 2 Bitrate = Samplerate = 48.0 kHz Language = English

Videos Add media

JOJO RABBIT Official Trailer (2019) Scarlett Johansson, Taika Waititi Movie HD
JOJO RABBIT Official Trailer (2019) Scarlett Johan...