John Wick: Chapter 3 - Parabellum

John Wick: Chapter 3 - Parabellum

Hot
MojibMojib   September 15, 2017  
Add to list
John Wick: Chapter 3 - Parabellum

Movie info

TITLE
Confirmed and upcoming movie titles only! Search before adding to avoid dupes.
John Wick: Chapter 3 - Parabellum
YEAR
The year the movie is set to be released.
2019
GENRE
Pick one or multiple movie genres.
CINEMA
First cinema release date in any country.
May 17, 2019
DIGITAL RELEASE
Official digital release date on services such as iTunes, Amazon, Netflix. It's the first known release date, without any country restriction. So if it's out on iTunes Russia first, this would be the digital release date.
August 23, 2019
DESCRIPTION
Hardly a surprise but the John Wick franchise will get a third movie. Yet again directed by Chad Stahelski who co-directed the first one and did the second one by himself.
While the second chapter made a ton more money in the cinema it's interesting to see just how confident Lionsgate is that the third one will be success. Especially since it's going to be released the same month as Star Wars Episode 9 (Edit: Star Wars was delayed). And while it's said to be the final chapter, it's likely Keanu Reeves' will return for a fourth one if it proves to be another box office hit.
WHERE YOU WATCH

Where you watch Email alert

The movie is online and reported below, Use the alert button to get notified when higher quality versions are available.

Reports

Is John Wick: Chapter 3 - Parabellum available online? Yes. Reports of pirated torrents and streams are available below.
When will John Wick: Chapter 3 - Parabellum be available on digital platforms like iTunes or Amazon? It's set for a August 23, 2019 release. This likely includes iTunes and Amazon unless it is an exclusive Netflix, or similar, release. Physical versions on Blu-Ray or DVD will likely follow.

August 13, 2019
John.Wick.3.2019.720p.BluRay.900MB.x264-GalaxyRG
Video and audio quality: 5/5 | Source: BluRay

Submitted by: Costa | Trust Rank level: Hero member
Format: Torrent | Site: torrentgalaxy
MEDIAINFO Container = Matroska (mkv) Duration = 02:11:04.938 Filesize = 899 MiB Overall bitrate = 958 kb/s Video Codec info = AVC [email protected] | V_MPEG4/ISO/AVC Resolution = 1280x544 Display AR = 2.388 | 2.40:1 Bitrate = Framerate = VFR Color space = YUV Chroma subsampling = 4:2:0 Encoder = x264 - core 148 r2748 97eaef2 Audio Codec info = AAC LC | A_AAC Channels = 2 Bitrate = Samplerate = 48.0 kHz Language = English Included subtitles English
August 13, 2019
John.Wick.Chapter.3.Parabellum.2019.DVDRip.XviD.AC3-EVO
Video and audio quality: 5/5 | Source: DVD

Submitted by: Mr. Meeseeks | Trust Rank level: Supreme Member
Format: Torrent | Site: RARBG
Video ID : 0 Format : MPEG-4 Visual Format profile : Advanced [email protected] Format settings : BVOP2 Format settings, BVOP : 2 Format settings, QPel : No Format settings, GMC : No warppoints Format settings, Matrix : Default (H.263) Muxing mode : Packed bitstream Codec ID : XVID Codec ID/Hint : XviD Duration : 2 h 11 min Bit rate : 1 099 kb/s Width : 720 pixels Height : 304 pixels Display aspect ratio : 2.35:1 Frame rate : 29.970 (30000/1001) FPS Color space : YUV Chroma subsampling : 4:2:0 Bit depth : 8 bits Scan type : Progressive Compression mode : Lossy Bits/(Pixel*Frame) : 0.168 Stream size : 1.01 GiB (71%) Writing library : XviD 67 Audio ID : 1 Format : AC-3 Format/Info : Audio Coding 3 Commercial name : Dolby Digital Codec ID : 2000 Duration : 2 h 11 min Bit rate mode : Constant Bit rate : 448 kb/s Channel(s) : 6 channels Channel layout : L R C LFE Ls Rs Sampling rate : 48.0 kHz Frame rate : 31.250 FPS (1536 SPF) Bit depth : 16 bits Compression mode : Lossy Stream size : 420 MiB (29%) Alignment : Aligned on interleaves Interleave, duration : 33 ms (1.00 video frame) Interleave, preload duration : 512 ms Service kind : Complete Main
July 09, 2019
John.Wick.3.2019.HDRip.XviD.AC3-EVO
Video and audio quality: 4/5 | Source: Official web stream

Submitted by: Mavoy | Trust Rank level: Professional
Format: Torrent | Site: 1337x
ViDEO: 1700 Kbps RESOLUTiON: 720x304 RUNTiME: 2h 10m 43s SUBTiTLES: English when needed AUDiO: 192 Kbps AC3 2.0 LANGUAGE: ENGLiSH
June 29, 2019
ohn.Wick.3.2019.TRUECAM.XviD-AVID[TGx]
Video and audio quality: 1/5 | Source: Camera

Submitted by: Costa | Trust Rank level: Hero member
Format: Torrent | Site: torrentgalaxy
MEDIAINFO Container = AVI (avi) Duration = 02:01:53.006 Filesize = 1 GiB Overall bitrate = 1 541 kb/s Video Codec info = MPEG-4 Visual Advanced [email protected] | XVID Resolution = 720x404 Display AR = 2.200 | 2.2:1 Bitrate = 1 398 kb/s Framerate = 24.000 Color space = YUV Chroma subsampling = 4:2:0 Encoder = XviD0067 Audio Codec info = MPEG Audio Layer 3 | 55 Channels = 2 Bitrate = CBR 128 kb/s Samplerate = 44.1 kHz Language = English
May 19, 2019
John Wick 3 2019 720p HDCAM HQ-H264 AC3 ADDS CUT OUT WILL1869
Video and audio quality: 1/5 | Source: Camera

Submitted by: Mojib | Trust Rank level: Legend Member
Format: Torrent | Site: IPtorrents
from encoder: ok people another 1xbet release done my norm cut and cropped out all adds a This one in my opinion is ok cam for the first one is watchable little dark in places as with most cams. Visual 6. Audio 6. 3 samples included for you to check out in dark and light sceens. hope you all like and enjoy dont forget to seed thanks Will 1869
May 16, 2019
John.Wick.3.2019.720p.HDCAM.900MB.1xbet.x264-BONSAI[TGx]
Video and audio quality: 1/5 | Source: Camera

Submitted by: Costa | Trust Rank level: Hero member
Format: Torrent | Site: torrentgalaxy
MEDIAINFO Container = Matroska (mkv) Duration = 02:02:06.485 Filesize = 897 MiB Overall bitrate = 1 027 kb/s Video Codec info = AVC [email protected] | V_MPEG4/ISO/AVC Resolution = 1280x544 Display AR = 2.388 | 2.40:1 Bitrate = Framerate = VFR Color space = YUV Chroma subsampling = 4:2:0 Encoder = x264 - core 148 r2748 97eaef2 Audio Codec info = AAC LC | A_AAC Channels = 2 Bitrate = Samplerate = 48.0 kHz Language = English
Load More

Videos Add media

John Wick: Chapter 3 - Parabellum (2019 Movie) New Trailer – Keanu Reeves, Halle Berry
John Wick: Chapter 3 - Parabellum (2019 Movie) New...